<?xml version="1.0" standalone="no"?>
<!DOCTYPE svg PUBLIC "-//W3C//DTD SVG 1.1//EN" "http://www.w3.org/Graphics/SVG/1.1/DTD/svg11.dtd" >
<svg xmlns="http://www.w3.org/2000/svg" xmlns:xlink="http://www.w3.org/1999/xlink" version="1.1">
<metadata>
Created by FontForge 20201107 at Wed Aug  4 12:36:51 2021
 By Robert Madole
Copyright (c) Font Awesome
</metadata>
<!-- Font Awesome Pro 5.15.4 by @fontawesome - https://fontawesome.com License - https://fontawesome.com/license (Commercial License) --><defs>
<font id="FontAwesome5Pro-Solid" horiz-adv-x="640" >
  <font-face 
    font-family="Font Awesome 5 Pro Solid"
    font-weight="900"
    font-stretch="normal"
    units-per-em="512"
    panose-1="2 0 5 3 0 0 0 0 0 0"
    ascent="448"
    descent="-64"
    bbox="0 -64.0124 640.033 448.025"
    underline-thickness="25"
    underline-position="-50"
    unicode-range="U+0020-F8FF"
  />
    <missing-glyph />
    <glyph glyph-name="user" unicode="&#xf007;" horiz-adv-x="448" 
d="M224 192c-70.7002 0 -128 57.2998 -128 128s57.2998 128 128 128s128 -57.2998 128 -128s-57.2998 -128 -128 -128zM313.6 160c74.2002 0 134.4 -60.2002 134.4 -134.4v-41.5996c0 -26.5 -21.5 -48 -48 -48h-352c-26.5 0 -48 21.5 -48 48v41.5996
c0 74.2002 60.2002 134.4 134.4 134.4h16.6992c22.3008 -10.2002 46.9004 -16 72.9004 -16s50.7002 5.7998 72.9004 16h16.6992z" />
    <glyph glyph-name="users" unicode="&#xf0c0;" 
d="M96 224c-35.2998 0 -64 28.7002 -64 64s28.7002 64 64 64s64 -28.7002 64 -64s-28.7002 -64 -64 -64zM544 224c-35.2998 0 -64 28.7002 -64 64s28.7002 64 64 64s64 -28.7002 64 -64s-28.7002 -64 -64 -64zM576 192c35.2998 0 64 -28.7002 64 -64v-32
c0 -17.7002 -14.2998 -32 -32 -32h-66c-6.2002 47.4004 -34.7998 87.2998 -75.0996 109.4c11.5996 11.5 27.5 18.5996 45.0996 18.5996h64zM320 192c-61.9004 0 -112 50.0996 -112 112s50.0996 112 112 112s112 -50.0996 112 -112s-50.0996 -112 -112 -112zM396.8 160
c63.6006 0 115.2 -51.5996 115.2 -115.2v-28.7998c0 -26.5 -21.5 -48 -48 -48h-288c-26.5 0 -48 21.5 -48 48v28.7998c0 63.6006 51.5996 115.2 115.2 115.2h8.2998c20.9004 -10 43.9004 -16 68.5 -16s47.7002 6 68.5 16h8.2998zM173.1 173.4
c-40.2998 -22.1006 -68.8994 -62 -75.1992 -109.4h-65.9004c-17.7002 0 -32 14.2998 -32 32v32c0 35.2998 28.7002 64 64 64h64c17.5996 0 33.5 -7.09961 45.0996 -18.5996z" />
    <glyph glyph-name="cloud" unicode="&#xf0c2;" 
d="M537.6 221.4c58.4004 -11.8008 102.4 -63.5 102.4 -125.4c0 -70.7002 -57.2998 -128 -128 -128h-368c-79.5 0 -144 64.5 -144 144c0 62.7998 40.2002 116.2 96.2002 135.9c-0.100586 2.69922 -0.200195 5.39941 -0.200195 8.09961c0 88.4004 71.5996 160 160 160
c59.2998 0 111 -32.2002 138.7 -80.2002c15.2002 10.2002 33.5996 16.2002 53.2998 16.2002c53 0 96 -43 96 -96c0 -12.2002 -2.2998 -23.9004 -6.40039 -34.5996z" />
    <glyph glyph-name="cloud-download" unicode="&#xf0ed;" 
d="M537.6 221.4c58.4004 -11.8008 102.4 -63.5 102.4 -125.4c0 -70.7002 -57.2998 -128 -128 -128h-368c-79.5 0 -144 64.5 -144 144c0 62.7998 40.2002 116.2 96.2002 135.9c-0.100586 2.69922 -0.200195 5.39941 -0.200195 8.09961c0 88.4004 71.5996 160 160 160
c59.2998 0 111 -32.2002 138.7 -80.2002c15.2002 10.2002 33.5996 16.2002 53.2998 16.2002c53 0 96 -43 96 -96c0 -12.2002 -2.2998 -23.9004 -6.40039 -34.5996zM397.7 128.4c9.2998 9.39941 9.2998 24.5996 0.0996094 33.8994l-10.7998 10.7998
c-9.59961 9.60059 -25.2002 9.40039 -34.5 -0.5l-32.4004 -34.5v125.9c0 13.2998 -10.6992 24 -24 24h-16c-13.2998 0 -24 -10.7002 -24 -24v-125.9l-32.3994 34.5c-9.2998 9.80078 -24.9004 10.1006 -34.5 0.5l-10.7998 -10.7998
c-9.40039 -9.2998 -9.40039 -24.5 0 -33.8994l92.6992 -92.7002c9.30078 -9.40039 24.5 -9.40039 33.9004 0z" />
    <glyph glyph-name="cloud-upload" unicode="&#xf0ee;" 
d="M537.6 221.4c58.4004 -11.8008 102.4 -63.5 102.4 -125.4c0 -70.7002 -57.2998 -128 -128 -128h-368c-79.5 0 -144 64.5 -144 144c0 62.7998 40.2002 116.2 96.2002 135.9c-0.100586 2.69922 -0.200195 5.39941 -0.200195 8.09961c0 88.4004 71.5996 160 160 160
c59.2998 0 111 -32.2002 138.7 -80.2002c15.2002 10.2002 33.5996 16.2002 53.2998 16.2002c53 0 96 -43 96 -96c0 -12.2002 -2.2998 -23.9004 -6.40039 -34.5996zM397.7 157.7c9.2998 9.2998 9.2998 24.5 -0.100586 33.8994l-92.6992 92.7002
c-9.30078 9.40039 -24.5 9.40039 -33.9004 0l-92.7002 -92.7002c-9.39941 -9.2998 -9.39941 -24.5 0 -33.8994l10.7998 -10.7998c9.60059 -9.60059 25.2002 -9.40039 34.5 0.5l32.4004 34.5v-125.9c0 -13.2998 10.7002 -24 24 -24h16c13.2998 0 24 10.7002 24 24v125.9
l32.4004 -34.5c9.2998 -9.80078 24.8994 -10.1006 34.5 -0.5z" />
    <glyph glyph-name="user-md" unicode="&#xf0f0;" horiz-adv-x="448" 
d="M224 192c-70.7002 0 -128 57.2998 -128 128s57.2998 128 128 128s128 -57.2998 128 -128s-57.2998 -128 -128 -128zM104 24c0 13.2998 10.7002 24 24 24s24 -10.7002 24 -24s-10.7002 -24 -24 -24s-24 10.7002 -24 24zM320 159.4c71.2002 -3.5 128 -61.8008 128 -133.801
v-44.7998c0 -24.7002 -20.0996 -44.7998 -44.7998 -44.7998h-358.4c-24.7002 0 -44.7998 20.0996 -44.7998 44.7998v44.7998c0 66.6006 48.5 121.4 112.1 132.101v-80.4004c-23.0996 -6.89941 -40 -28.0996 -40 -53.3994c0 -30.9004 25.1006 -56 56 -56
c30.9004 0 56 25.0996 56 56c0 25.2998 -16.8994 46.5 -40 53.3994v81.6006c7.7002 -1 15.2002 -2.60059 22.6006 -5.2002c18 -6.2998 37.2998 -9.7998 57.3994 -9.7998c20.1006 0 39.4004 3.5 57.4004 9.7998c2.2002 0.799805 4.40039 1.2002 6.59961 1.89941v-45.1992
c-36.5 -7.5 -64 -39.8008 -64 -78.4004v-43.7998c0 -8.10059 5.90039 -14.7998 13.8008 -15.9004l31.1992 -4.2002c4.30078 -0.799805 8.5 2 9.40039 6.30078l3.09961 15.6992c0.800781 4.30078 -2 8.5 -6.2998 9.40039l-19.2998 3.90039v26.6992
c0 67 96 64.7002 96 1.90039v-28.5l-19.2998 -3.90039c-4.40039 -0.799805 -7.2002 -5.09961 -6.2998 -9.39941l3.09961 -15.7002c0.900391 -4.40039 5.09961 -7.2002 9.40039 -6.2998l32.1992 6.39941c7.5 1.5 12.9004 8.10059 12.9004 15.7002v41.7002
c0 38.5996 -27.5 71 -64 78.4004v49z" />
    <glyph glyph-name="sliders-h" unicode="&#xf1de;" horiz-adv-x="512" 
d="M496 64c8.7998 0 16 -7.2002 16 -16v-32c0 -8.7998 -7.2002 -16 -16 -16h-336v-16c0 -8.7998 -7.2002 -16 -16 -16h-32c-8.7998 0 -16 7.2002 -16 16v16h-80c-8.7998 0 -16 7.2002 -16 16v32c0 8.7998 7.2002 16 16 16h80v16c0 8.7998 7.2002 16 16 16h32
c8.7998 0 16 -7.2002 16 -16v-16h336zM496 224c8.7998 0 16 -7.2002 16 -16v-32c0 -8.7998 -7.2002 -16 -16 -16h-80v-16c0 -8.7998 -7.2002 -16 -16 -16h-32c-8.7998 0 -16 7.2002 -16 16v16h-336c-8.7998 0 -16 7.2002 -16 16v32c0 8.7998 7.2002 16 16 16h336v16
c0 8.7998 7.2002 16 16 16h32c8.7998 0 16 -7.2002 16 -16v-16h80zM496 384c8.7998 0 16 -7.2002 16 -16v-32c0 -8.7998 -7.2002 -16 -16 -16h-208v-16c0 -8.7998 -7.2002 -16 -16 -16h-32c-8.7998 0 -16 7.2002 -16 16v16h-208c-8.7998 0 -16 7.2002 -16 16v32
c0 8.7998 7.2002 16 16 16h208v16c0 8.7998 7.2002 16 16 16h32c8.7998 0 16 -7.2002 16 -16v-16h208z" />
    <glyph glyph-name="user-secret" unicode="&#xf21b;" horiz-adv-x="448" 
d="M383.9 139.7c38.2998 -23.7002 64.0996 -65.7002 64.0996 -114.101v-44.7998c0 -24.7002 -20.0996 -44.7998 -44.7998 -44.7998h-358.4c-24.7002 0 -44.7998 20.0996 -44.7998 44.7998v44.7998c0 49.7002 27.2998 92.6006 67.4004 115.9l-25.8008 60.2002
c-4.5 10.5996 3.2002 22.2998 14.7002 22.2998h57.5c-11 18.9004 -17.7998 40.5996 -17.7998 64v0.299805c-39.2002 7.7998 -64 19.1006 -64 31.7002c0 13.2998 27.2998 25.0996 70 33c9.2002 32.7998 27.0996 65.7998 40.5996 82.7998
c9.5 11.9004 25.9004 15.6006 39.5 8.7998l27.6006 -13.7998c9 -4.5 19.5996 -4.5 28.5996 0l27.6006 13.7998c13.5996 6.80078 30 3.10059 39.5 -8.7998c13.5996 -17 31.3994 -50 40.5996 -82.7998c42.7998 -7.90039 70.0996 -19.7002 70.0996 -33
c0 -12.5996 -24.7998 -23.9004 -64 -31.7002v-0.299805c0 -23.4004 -6.7998 -45.0996 -17.7998 -64h58.5c11.2998 0 19 -11.2002 15 -21.7002zM176 -32l32 120l-24 40l-49.5996 32zM272 -32l41.5996 192l-49.5996 -32l-24 -40zM313.7 266.5
c0.799805 2.59961 6.2998 5.7002 6.39941 5.7998v10.7998c-28.2998 -3.69922 -61 -5.7998 -96 -5.7998s-67.6992 2.2002 -96 5.7998v-10.7998c0 -0.0996094 5.5 -3.2998 6.30078 -5.7998c3.7998 -11.9004 7 -24.5996 16.5 -33.4004c8 -7.39941 47 -25.1992 64 25
c2.89941 8.40039 15.5 8.40039 18.2998 0c16 -47.3994 53.8994 -34.2998 64 -25c9.5 8.80078 12.5996 21.5 16.5 33.4004z" />
    <glyph glyph-name="user-plus" unicode="&#xf234;" 
d="M624 240c8.7998 0 16 -7.2002 16 -16v-32c0 -8.7998 -7.2002 -16 -16 -16h-64v-64c0 -8.7998 -7.2002 -16 -16 -16h-32c-8.7998 0 -16 7.2002 -16 16v64h-64c-8.7998 0 -16 7.2002 -16 16v32c0 8.7998 7.2002 16 16 16h64v64c0 8.7998 7.2002 16 16 16h32
c8.7998 0 16 -7.2002 16 -16v-64h64zM224 192c-70.7002 0 -128 57.2998 -128 128s57.2998 128 128 128s128 -57.2998 128 -128s-57.2998 -128 -128 -128zM313.6 160c74.2002 0 134.4 -60.2002 134.4 -134.4v-41.5996c0 -26.5 -21.5 -48 -48 -48h-352
c-26.5 0 -48 21.5 -48 48v41.5996c0 74.2002 60.2002 134.4 134.4 134.4h16.6992c22.3008 -10.2002 46.9004 -16 72.9004 -16s50.7002 5.7998 72.9004 16h16.6992z" />
    <glyph glyph-name="user-times" unicode="&#xf235;" 
d="M589.6 208l45.6006 -45.5996c6.2998 -6.30078 6.2998 -16.5 0 -22.8008l-22.7998 -22.7998c-6.30078 -6.2998 -16.5 -6.2998 -22.8008 0l-45.5996 45.6006l-45.5996 -45.6006c-6.30078 -6.2998 -16.5 -6.2998 -22.8008 0l-22.7998 22.7998
c-6.2998 6.30078 -6.2998 16.5 0 22.8008l45.6006 45.5996l-45.6006 45.5996c-6.2998 6.30078 -6.2998 16.5 0 22.8008l22.7998 22.7998c6.30078 6.2998 16.5 6.2998 22.8008 0l45.5996 -45.6006l45.5996 45.6006c6.30078 6.2998 16.5 6.2998 22.8008 0l22.7998 -22.7998
c6.2998 -6.30078 6.2998 -16.5 0 -22.8008zM224 192c-70.7002 0 -128 57.2998 -128 128s57.2998 128 128 128s128 -57.2998 128 -128s-57.2998 -128 -128 -128zM313.6 160c74.2002 0 134.4 -60.2002 134.4 -134.4v-41.5996c0 -26.5 -21.5 -48 -48 -48h-352
c-26.5 0 -48 21.5 -48 48v41.5996c0 74.2002 60.2002 134.4 134.4 134.4h16.6992c22.3008 -10.2002 46.9004 -16 72.9004 -16s50.7002 5.7998 72.9004 16h16.6992z" />
    <glyph glyph-name="cloud-download-alt" unicode="&#xf381;" 
d="M537.6 221.4c58.4004 -11.8008 102.4 -63.5 102.4 -125.4c0 -70.7002 -57.2998 -128 -128 -128h-368c-79.5 0 -144 64.5 -144 144c0 62.7998 40.2002 116.2 96.2002 135.9c-0.100586 2.69922 -0.200195 5.39941 -0.200195 8.09961c0 88.4004 71.5996 160 160 160
c59.2998 0 111 -32.2002 138.7 -80.2002c15.2002 10.2002 33.5996 16.2002 53.2998 16.2002c53 0 96 -43 96 -96c0 -12.2002 -2.2998 -23.9004 -6.40039 -34.5996zM404.7 132.7c10.0996 10.0996 2.89941 27.2998 -11.2998 27.2998h-65.4004v112c0 8.7998 -7.2002 16 -16 16
h-48c-8.7998 0 -16 -7.2002 -16 -16v-112h-65.4004c-14.1992 0 -21.3994 -17.2002 -11.2998 -27.2998l105.4 -105.4c6.2002 -6.2002 16.3994 -6.2002 22.5996 0z" />
    <glyph glyph-name="cloud-upload-alt" unicode="&#xf382;" 
d="M537.6 221.4c58.4004 -11.8008 102.4 -63.5 102.4 -125.4c0 -70.7002 -57.2998 -128 -128 -128h-368c-79.5 0 -144 64.5 -144 144c0 62.7998 40.2002 116.2 96.2002 135.9c-0.100586 2.69922 -0.200195 5.39941 -0.200195 8.09961c0 88.4004 71.5996 160 160 160
c59.2998 0 111 -32.2002 138.7 -80.2002c15.2002 10.2002 33.5996 16.2002 53.2998 16.2002c53 0 96 -43 96 -96c0 -12.2002 -2.2998 -23.9004 -6.40039 -34.5996zM393.4 160c14.1992 0 21.3994 17.2002 11.2998 27.2998l-105.4 105.4
c-6.2002 6.2002 -16.3994 6.2002 -22.5996 0l-105.4 -105.4c-10.0996 -10.0996 -3 -27.2998 11.2998 -27.2998h65.4004v-112c0 -8.7998 7.2002 -16 16 -16h48c8.7998 0 16 7.2002 16 16v112h65.4004z" />
    <glyph glyph-name="sliders-v" unicode="&#xf3f1;" horiz-adv-x="448" 
d="M112 352c8.7998 0 16 -7.2002 16 -16v-32c0 -8.7998 -7.2002 -16 -16 -16h-16v-336c0 -8.7998 -7.2002 -16 -16 -16h-32c-8.7998 0 -16 7.2002 -16 16v336h-16c-8.7998 0 -16 7.2002 -16 16v32c0 8.7998 7.2002 16 16 16h16v80c0 8.7998 7.2002 16 16 16h32
c8.7998 0 16 -7.2002 16 -16v-80h16zM432 224c8.7998 0 16 -7.2002 16 -16v-32c0 -8.7998 -7.2002 -16 -16 -16h-16v-208c0 -8.7998 -7.2002 -16 -16 -16h-32c-8.7998 0 -16 7.2002 -16 16v208h-16c-8.7998 0 -16 7.2002 -16 16v32c0 8.7998 7.2002 16 16 16h16v208
c0 8.7998 7.2002 16 16 16h32c8.7998 0 16 -7.2002 16 -16v-208h16zM272 96c8.7998 0 16 -7.2002 16 -16v-32c0 -8.7998 -7.2002 -16 -16 -16h-16v-80c0 -8.7998 -7.2002 -16 -16 -16h-32c-8.7998 0 -16 7.2002 -16 16v80h-16c-8.7998 0 -16 7.2002 -16 16v32
c0 8.7998 7.2002 16 16 16h16v336c0 8.7998 7.2002 16 16 16h32c8.7998 0 16 -7.2002 16 -16v-336h16z" />
    <glyph glyph-name="user-alt" unicode="&#xf406;" horiz-adv-x="512" 
d="M256 160c-79.5 0 -144 64.5 -144 144s64.5 144 144 144s144 -64.5 144 -144s-64.5 -144 -144 -144zM384 128c70.7002 0 128 -57.2998 128 -128v-16c0 -26.5 -21.5 -48 -48 -48h-416c-26.5 0 -48 21.5 -48 48v16c0 70.7002 57.2998 128 128 128h55.0996
c22.3008 -10.2002 46.9004 -16 72.9004 -16s50.7002 5.7998 72.9004 16h55.0996z" />
    <glyph glyph-name="user-alt-slash" unicode="&#xf4fa;" 
d="M633.8 -10.0996c7 -5.40039 8.2998 -15.5 2.90039 -22.3008l-19.6006 -25.2998c-5.5 -7 -15.5 -8.2002 -22.5 -2.7998l-588.399 454.7c-7 5.39941 -8.2002 15.3994 -2.7998 22.3994l19.5996 25.2002c5.5 7 15.5 8.2002 22.5 2.7998l135.5 -104.8
c16 62.1006 71.9004 108.2 139 108.2c79.5 0 144 -64.5 144 -144c0 -54.0996 -30.2002 -100.7 -74.4004 -125.3zM198.4 128h47.3994l248.4 -192h-382.2c-26.5 0 -48 21.5 -48 48v9.59961c0 74.2002 60.2002 134.4 134.4 134.4z" />
    <glyph glyph-name="user-astronaut" unicode="&#xf4fb;" horiz-adv-x="448" 
d="M64 224c-8.7998 0 -16 7.2002 -16 16v96c0 8.7998 7.2002 16 16 16h13.5c24.7002 56.5 80.9004 96 146.5 96s121.8 -39.5 146.5 -96h13.5c8.7998 0 16 -7.2002 16 -16v-96c0 -8.7998 -7.2002 -16 -16 -16h-13.5c-24.7002 -56.5 -80.9004 -96 -146.5 -96
s-121.8 39.5 -146.5 96h-13.5zM104 312v-24c0 -53 43 -96 96 -96h48c53 0 96 43 96 96v24c0 22.0996 -21.5 40 -48 40h-144c-26.5 0 -48 -17.9004 -48 -40zM176 240l-12 36l-36 12l36 12l12 36l12 -36l36 -12l-36 -12zM327.6 126.6c67.5 -7.09961 120.4 -63.5996 120.4 -133
v-9.59961c0 -26.5 -21.5 -48 -48 -48h-80v64c0 17.7002 -14.2998 32 -32 32h-128c-17.7002 0 -32 -14.2998 -32 -32v-64h-80c-26.5 0 -48 21.5 -48 48v9.59961c0 69.4004 52.9004 125.9 120.4 133c29.8994 -19.2998 65.3994 -30.5996 103.6 -30.5996
s73.7002 11.2998 103.6 30.5996zM272 0c8.7998 0 16 -7.2002 16 -16s-7.2002 -16 -16 -16s-16 7.2002 -16 16s7.2002 16 16 16zM176 0c8.7998 0 16 -7.2002 16 -16v-48h-32v48c0 8.7998 7.2002 16 16 16z" />
    <glyph glyph-name="user-check" unicode="&#xf4fc;" 
d="M224 192c-70.7002 0 -128 57.2998 -128 128s57.2998 128 128 128s128 -57.2998 128 -128s-57.2998 -128 -128 -128zM313.6 160c74.2002 0 134.4 -60.2002 134.4 -134.4v-41.5996c0 -26.5 -21.5 -48 -48 -48h-352c-26.5 0 -48 21.5 -48 48v41.5996
c0 74.2002 60.2002 134.4 134.4 134.4h16.6992c22.3008 -10.2002 46.9004 -16 72.9004 -16s50.7002 5.7998 72.9004 16h16.6992zM636.6 288.4c4.60059 -4.60059 4.5 -12.1006 -0.0996094 -16.8008l-141.3 -140.199c-4.7002 -4.60059 -12.2002 -4.60059 -16.7998 0.0996094
l-81.7002 82.2998c-4.60059 4.7002 -4.60059 12.2002 0.0996094 16.7998l28.1006 27.9004c4.69922 4.59961 12.1992 4.59961 16.7998 -0.0996094l45.5 -45.8008l104.8 104c4.7002 4.60059 12.2002 4.60059 16.7998 -0.0996094z" />
    <glyph glyph-name="user-clock" unicode="&#xf4fd;" 
d="M496 224c79.5996 0 144 -64.4004 144 -144s-64.4004 -144 -144 -144s-144 64.4004 -144 144s64.4004 144 144 144zM560 73.7002v12.5996c0 5.2998 -4.40039 9.7002 -9.7002 9.7002h-38.2998v54.2998c0 5.2998 -4.40039 9.7002 -9.7002 9.7002h-12.5996
c-5.2998 0 -9.7002 -4.40039 -9.7002 -9.7002v-76.5996c0 -5.2998 4.40039 -9.7002 9.7002 -9.7002h60.5996c5.2998 0 9.7002 4.40039 9.7002 9.7002zM320 80c0 -59.5 29.7998 -112.1 75.0996 -144h-347.1c-26.5 0 -48 21.5 -48 48v41.5996
c0 74.2002 60.2002 134.4 134.4 134.4h16.6992c22.3008 -10.2002 46.9004 -16 72.9004 -16s50.7002 5.7998 72.9004 16h16.6992c8.40039 0 16.6006 -1 24.6006 -2.5c-11.5 -23.4004 -18.2002 -49.7002 -18.2002 -77.5zM224 192c-70.7002 0 -128 57.2998 -128 128
s57.2998 128 128 128s128 -57.2998 128 -128s-57.2998 -128 -128 -128z" />
    <glyph glyph-name="user-cog" unicode="&#xf4fe;" 
d="M610.5 74.7002l25.7998 -14.9004c2.90039 -1.7002 4.2998 -5.2002 3.2998 -8.5c-6.69922 -21.5996 -18.1992 -41.2002 -33.1992 -57.3994c-2.30078 -2.5 -6.10059 -3.10059 -9 -1.40039l-25.8008 14.9004c-10.8994 -9.30078 -23.3994 -16.5 -36.8994 -21.3008v-29.7998
c0 -3.39941 -2.40039 -6.39941 -5.7002 -7.09961c-21.2002 -4.7998 -43.9004 -5 -66.2002 0c-3.2998 0.700195 -5.7002 3.7002 -5.7002 7.09961v29.7998c-13.5 4.80078 -26 12 -36.8994 21.3008l-25.7998 -14.9004c-3 -1.7002 -6.7002 -1.09961 -9 1.40039
c-15 16.2998 -26.5 35.7998 -33.2002 57.3994c-1 3.2998 0.299805 6.7998 3.2998 8.5l25.7998 14.9004c-2.59961 14.0996 -2.59961 28.5 0 42.5996l-25.7998 14.9004c-2.90039 1.7002 -4.2998 5.2002 -3.2998 8.5c6.7002 21.5996 18.2002 41.2002 33.2002 57.3994
c2.2998 2.5 6.09961 3.10059 9 1.40039l25.7998 -14.9004c10.8994 9.30078 23.3994 16.5 36.8994 21.3008v29.7998c0 3.39941 2.40039 6.39941 5.7002 7.09961c21.2002 4.7998 43.9004 5 66.2002 0c3.2998 -0.700195 5.7002 -3.7002 5.7002 -7.09961v-29.7998
c13.5 -4.80078 26 -12 36.8994 -21.3008l25.8008 14.9004c3 1.7002 6.69922 1.09961 9 -1.40039c15 -16.1992 26.5 -35.7998 33.1992 -57.3994c1 -3.2998 -0.299805 -6.7998 -3.2998 -8.5l-25.7998 -14.9004c2.59961 -14.0996 2.59961 -28.5 0 -42.5996zM496 47.5
c26.7998 0 48.5 21.7998 48.5 48.5s-21.7998 48.5 -48.5 48.5s-48.5 -21.7998 -48.5 -48.5s21.7002 -48.5 48.5 -48.5zM224 192c-70.7002 0 -128 57.2998 -128 128s57.2998 128 128 128s128 -57.2998 128 -128s-57.2998 -128 -128 -128zM425.2 -34.5v-9.2002
c0 -4.09961 0.799805 -8 2 -11.7998c-7.7002 -5.2998 -17.1006 -8.5 -27.2002 -8.5h-352c-26.5 0 -48 21.5 -48 48v41.5996c0 74.2002 60.2002 134.4 134.4 134.4h16.6992c22.3008 -10.2002 46.9004 -16 72.9004 -16s50.7002 5.7998 72.9004 16h16.6992
c3.90039 0 7.60059 -0.900391 11.4004 -1.2002c-1 -2.89941 -2.2998 -5.7998 -3.2002 -8.7002c-5.5 -17.6992 1.90039 -36.5 17.9004 -45.6992l7.89941 -4.60059c-0.0996094 -2.59961 -0.0996094 -5.2002 0 -7.7998l-7.89941 -4.59961
c-16 -9.30078 -23.4004 -28 -17.9004 -45.7002c7.90039 -25.7002 21.9004 -49.7998 40.2002 -69.6006c7.5 -8 18 -12.5996 28.9004 -12.5996c6.7998 0 13.5996 1.90039 19.5996 5.2998l7.90039 4.60059c2.19922 -1.30078 4.5 -2.7002 6.7998 -3.90039z" />
    <glyph glyph-name="user-edit" unicode="&#xf4ff;" 
d="M224 192c-70.7002 0 -128 57.2998 -128 128s57.2998 128 128 128s128 -57.2998 128 -128s-57.2998 -128 -128 -128zM313.6 160c39.9004 0 75.4004 -17.7998 99.9004 -45.5l-77.2998 -77.2998l-7.90039 -7.90039l-1.2002 -11.0996l-6.7998 -60.9004
c-0.799805 -7.2998 0.200195 -14.5 2.60059 -21.2998h-274.9c-26.5 0 -48 21.5 -48 48v41.5996c0 74.2002 60.2002 134.4 134.4 134.4h16.6992c22.3008 -10.2002 46.9004 -16 72.9004 -16s50.7002 5.7998 72.9004 16h16.6992zM358.9 14.7002l137.899 137.8l71.7002 -71.7002
l-137.9 -137.899l-60.8994 -6.80078c-10.1006 -1.19922 -18.7002 7.40039 -17.6006 17.6006zM633 179.1c9.2998 -9.39941 9.2998 -24.5 0 -33.8994l-41.7998 -41.7998l-71.7998 71.6992l4.09961 4.10059l37.7998 37.7998c9.2998 9.2998 24.5 9.2998 33.7998 0z" />
    <glyph glyph-name="user-friends" unicode="&#xf500;" 
d="M192 192c-61.9004 0 -112 50.0996 -112 112s50.0996 112 112 112s112 -50.0996 112 -112s-50.0996 -112 -112 -112zM268.8 160c63.6006 0 115.2 -51.5996 115.2 -115.2v-28.7998c0 -26.5 -21.5 -48 -48 -48h-288c-26.5 0 -48 21.5 -48 48v28.7998
c0 63.6006 51.5996 115.2 115.2 115.2h8.2998c20.9004 -10 43.9004 -16 68.5 -16s47.7002 6 68.5 16h8.2998zM480 192c-53 0 -96 43 -96 96s43 96 96 96s96 -43 96 -96s-43 -96 -96 -96zM528 160c61.9004 0 112 -50.0996 112 -112c0 -26.5 -21.5 -48 -48 -48h-176.6
c0.0996094 2.09961 0.599609 4.2002 0.599609 6.40039v38.3994c0 38.6006 -15.2998 73.5 -39.7002 99.7998c16.5 9.5 35.2998 15.4004 55.7002 15.4004h3.7998c13.9004 -4.7998 28.6006 -8 44.2002 -8s30.2998 3.2002 44.2002 8h3.7998z" />
    <glyph glyph-name="user-graduate" unicode="&#xf501;" horiz-adv-x="448" 
d="M319.4 127.4c71.5 -3.10059 128.6 -61.6006 128.6 -133.801v-9.59961c0 -26.5 -21.5 -48 -48 -48h-352c-26.5 0 -48 21.5 -48 48v9.59961c0 72.2002 57.0996 130.7 128.6 133.801l95.4004 -95.4004zM13.5996 368.2c-18.0996 4.39941 -18.0996 27.2002 0 31.5996
l190.601 45.9004c13 3.09961 26.7002 3.09961 39.7002 0l190.399 -46c18.2002 -4.40039 18.2002 -27.1006 0 -31.5l-96.2998 -23.2002c8.7002 -17.2002 14 -36.4004 14 -57c0 -70.7002 -57.2998 -128 -128 -128s-128 57.2998 -128 128c0 20.5996 5.40039 39.7998 14 57
l-66 15.9004v-52.6006c7 -4.2002 12 -11.5 12 -20.2998c0 -8.40039 -4.59961 -15.4004 -11.0996 -19.7002l15.5996 -62.2998c1.7002 -6.90039 -2.09961 -14 -7.59961 -14h-41.8008c-5.5 0 -9.2998 7.09961 -7.59961 14l15.5996 62.2998
c-6.5 4.2998 -11.0996 11.2998 -11.0996 19.7002c0 8.7998 5 16.0996 12 20.2998v58.4004z" />
    <glyph glyph-name="user-minus" unicode="&#xf503;" 
d="M624 240c8.7998 0 16 -7.2002 16 -16v-32c0 -8.7998 -7.2002 -16 -16 -16h-192c-8.7998 0 -16 7.2002 -16 16v32c0 8.7998 7.2002 16 16 16h192zM224 192c-70.7002 0 -128 57.2998 -128 128s57.2998 128 128 128s128 -57.2998 128 -128s-57.2998 -128 -128 -128z
M313.6 160c74.2002 0 134.4 -60.2002 134.4 -134.4v-41.5996c0 -26.5 -21.5 -48 -48 -48h-352c-26.5 0 -48 21.5 -48 48v41.5996c0 74.2002 60.2002 134.4 134.4 134.4h16.6992c22.3008 -10.2002 46.9004 -16 72.9004 -16s50.7002 5.7998 72.9004 16h16.6992z" />
    <glyph glyph-name="user-ninja" unicode="&#xf504;" horiz-adv-x="448" 
d="M325.4 158.8c68.5996 -6.09961 122.6 -63 122.6 -133.2v-41.5996c0 -26.5 -21.5 -48 -48 -48h-352c-26.5 0 -48 21.5 -48 48v41.5996c0 70.2002 54 127.101 122.6 133.2l101.4 -101.399zM32 256c0 33.4004 17.0996 62.7998 43.0996 80
c-26 17.2002 -43.0996 46.5996 -43.0996 80c32 0 60.0996 -15.7998 77.5 -39.7998c20.9004 42.3994 64.0996 71.7998 114.5 71.7998c70.7002 0 128 -57.2998 128 -128s-57.2998 -128 -128 -128c-58.7998 0 -107.7 39.7998 -122.8 93.7002
c-17.4004 -18.2002 -41.9004 -29.7002 -69.2002 -29.7002zM176 352c-17.7002 0 -32 -14.2998 -32 -32h160c0 17.7002 -14.2998 32 -32 32h-96z" />
    <glyph glyph-name="user-shield" unicode="&#xf505;" 
d="M622.3 176.9c10.7002 -4.2002 17.7002 -14 17.7002 -24.9004c0 -124.5 -81.5996 -193.9 -132.9 -213.9c-4.19922 -1.59961 -12.5996 -3.69922 -22.1992 0c-64.2002 25.1006 -132.9 102.301 -132.9 213.9c0 10.9004 7 20.7002 17.7002 24.9004l115.2 45
c9.59961 3.69922 18.0996 1.59961 22.1992 0zM496 -14.4004c34.5996 16.4004 89.9004 64.7002 95.5 151.801l-95.5 37.2998v-189.101zM224 192c-70.7002 0 -128 57.2998 -128 128s57.2998 128 128 128s128 -57.2998 128 -128s-57.2998 -128 -128 -128zM320 152
c0 -95.2998 45.2002 -169.1 99.2002 -212c-5.90039 -2.5 -12.4004 -4 -19.2002 -4h-352c-26.5 0 -48 21.5 -48 48v41.5996c0 74.2002 60.2002 134.4 134.4 134.4h16.6992c22.3008 -10.2002 46.9004 -16 72.9004 -16s50.7002 5.7998 72.9004 16h16.6992
c2.60059 0 5 -0.700195 7.5 -0.799805c-0.299805 -2.40039 -1.09961 -4.7002 -1.09961 -7.2002z" />
    <glyph glyph-name="user-slash" unicode="&#xf506;" 
d="M633.8 -10.0996c7 -5.40039 8.2998 -15.5 2.90039 -22.3008l-19.6006 -25.2998c-5.5 -7 -15.5 -8.2002 -22.5 -2.7998l-588.399 454.7c-7 5.39941 -8.2002 15.3994 -2.7998 22.3994l19.5996 25.2002c5.5 7 15.5 8.2002 22.5 2.7998l147.6 -114
c5.40039 65.6006 59.8008 117.4 126.9 117.4c70.7002 0 128 -57.2998 128 -128c0 -55.7998 -35.9004 -102.7 -85.7002 -120.3zM96 25.5996c0 66.4004 48.2002 121.101 111.4 132.101l286.8 -221.7h-350.2c-26.5 0 -48 21.5 -48 48v41.5996z" />
    <glyph glyph-name="user-tag" unicode="&#xf507;" 
d="M630.6 83.0996c12.5 -12.5 12.5 -32.6992 -0.0996094 -45.1992l-92.5 -92.5c-12.5 -12.5 -32.7998 -12.5 -45.2998 0l-90.2998 90.1992c-12 12 -18.7002 28.2002 -18.7002 45.2002v79.2002c0 17.7002 14.2998 32 32 32h79.2998c17 0 33.2998 -6.7002 45.2998 -18.7002z
M447.8 104.1c13.2998 0 24 10.8008 24 24c0 13.3008 -10.7002 24 -24 24s-24 -10.6992 -24 -24c0 -13.2998 10.7002 -24 24 -24zM224 192.1c-70.7002 0 -128 57.3008 -128 127.9c0 70.7002 57.2998 128 128 128s128 -57.2998 128 -127.9c0 -70.6992 -57.2998 -128 -128 -128
zM351.8 80.9004c0 -25.7002 10 -49.8008 28.1006 -67.9004l58 -58c-8.80078 -11.4004 -22.4004 -18.9004 -37.9004 -18.9004h-352c-26.5 0 -48 21.5 -48 48v41.6006c0 74.2002 60.2002 134.399 134.4 134.5h16.6992c22.3008 -10.2002 46.9004 -16 72.9004 -16
s50.7002 5.7998 72.9004 16h16.6992c13.3008 0 26 -2.60059 38.2002 -6.2002v-73.0996z" />
    <glyph glyph-name="user-tie" unicode="&#xf508;" horiz-adv-x="448" 
d="M224 192c-70.7002 0 -128 57.2998 -128 128s57.2998 128 128 128s128 -57.2998 128 -128s-57.2998 -128 -128 -128zM319.8 159.4c71.2998 -3.40039 128.2 -61.7002 128.2 -133.801v-41.5996c0 -26.5 -21.5 -48 -48 -48h-352c-26.5 0 -48 21.5 -48 48v41.5996
c0 72.1006 56.9004 130.4 128.2 133.801l47.7998 -191.4l32 136l-32 56h96l-32 -56l32 -136z" />
    <glyph glyph-name="users-cog" unicode="&#xf509;" 
d="M610.5 106.7l25.7998 -14.9004c2.90039 -1.7002 4.2998 -5.2002 3.2998 -8.5c-6.69922 -21.5996 -18.1992 -41.2002 -33.1992 -57.3994c-2.30078 -2.5 -6.10059 -3.10059 -9 -1.40039l-25.8008 14.9004c-10.8994 -9.30078 -23.3994 -16.5 -36.8994 -21.3008v-29.7998
c0 -3.39941 -2.40039 -6.39941 -5.7002 -7.09961c-21.2002 -4.7998 -43.9004 -5 -66.2002 0c-3.2998 0.700195 -5.7002 3.7002 -5.7002 7.09961v29.7998c-13.5 4.80078 -26 12 -36.8994 21.3008l-25.7998 -14.9004c-3 -1.7002 -6.7002 -1.09961 -9 1.40039
c-15 16.2998 -26.5 35.7998 -33.2002 57.3994c-1 3.2998 0.299805 6.7998 3.2998 8.5l25.7998 14.9004c-2.59961 14.0996 -2.59961 28.5 0 42.5996l-25.7998 14.9004c-2.90039 1.7002 -4.2998 5.2002 -3.2998 8.5c6.7002 21.5996 18.2002 41.2002 33.2002 57.3994
c2.2998 2.5 6.09961 3.10059 9 1.40039l25.7998 -14.9004c10.8994 9.30078 23.3994 16.5 36.8994 21.3008v29.7998c0 3.39941 2.40039 6.39941 5.7002 7.09961c21.2002 4.7998 43.9004 5 66.2002 0c3.2998 -0.700195 5.7002 -3.7002 5.7002 -7.09961v-29.7998
c13.5 -4.80078 26 -12 36.8994 -21.3008l25.8008 14.9004c3 1.7002 6.69922 1.09961 9 -1.40039c15 -16.1992 26.5 -35.7998 33.1992 -57.3994c1 -3.2998 -0.299805 -6.7998 -3.2998 -8.5l-25.7998 -14.9004c2.59961 -14.0996 2.59961 -28.5 0 -42.5996zM496 79.5
c26.7998 0 48.5 21.7998 48.5 48.5s-21.7998 48.5 -48.5 48.5s-48.5 -21.7998 -48.5 -48.5s21.7002 -48.5 48.5 -48.5zM96 224c-35.2998 0 -64 28.7002 -64 64s28.7002 64 64 64s64 -28.7002 64 -64s-28.7002 -64 -64 -64zM320 192c-61.9004 0 -112 50.0996 -112 112
s50 111.9 111.9 111.9c61.8994 0 112 -50.1006 112 -112c0 -17.2002 -4.2002 -33.4004 -11.2002 -48c-0.799805 -0.5 -1.60059 -0.900391 -2.40039 -1.40039l-7.89941 4.59961c-5.90039 3.5 -12.7002 5.30078 -19.6006 5.30078c-11 0 -21.5 -4.60059 -28.8994 -12.6006
c-15.8008 -17.0996 -28 -37.5 -36.3008 -59.2002c-1.89941 -0.0996094 -3.69922 -0.599609 -5.59961 -0.599609zM425.2 -2.5v-9.2002c0 -7.5 2.5 -14.2998 6.2002 -20.2998h-255.4c-26.5 0 -48 21.5 -48 48v28.7998c0 63.6006 51.5996 115.2 115.3 115.2h8.2998
c20.9004 -10 43.9004 -16 68.5 -16c3.30078 0 6.5 0.400391 9.80078 0.599609c2.7998 -3.09961 6 -5.89941 9.7998 -8.09961l7.89941 -4.59961c-0.0996094 -2.60059 -0.0996094 -5.2002 0 -7.80078c-0.899414 -0.599609 -36.5 -15.7998 -25.7998 -50.2998
c7.90039 -25.7002 21.9004 -49.7998 40.2002 -69.5996c7.5 -8 18 -12.6006 28.9004 -12.6006c12.1992 0 19.2998 5 27.5 9.80078c2.19922 -1.30078 4.5 -2.7002 6.7998 -3.90039zM173.1 173.4c-40.2998 -22.1006 -68.8994 -62 -75.1992 -109.4h-65.9004
c-17.7002 0 -32 14.2998 -32 32v32c0 35.2998 28.7002 64 64 64h64c17.5996 0 33.5 -7.09961 45.0996 -18.5996z" />
  </font>
</defs>
</svg>
