<?xml version="1.0" standalone="no"?>
<!DOCTYPE svg PUBLIC "-//W3C//DTD SVG 1.1//EN" "http://www.w3.org/Graphics/SVG/1.1/DTD/svg11.dtd" >
<svg xmlns="http://www.w3.org/2000/svg" xmlns:xlink="http://www.w3.org/1999/xlink" version="1.1">
<metadata>
Created by FontForge 20201107 at Wed Aug  4 12:37:02 2021
 By Robert Madole
Copyright (c) Font Awesome
</metadata>
<!-- Font Awesome Pro 5.15.4 by @fontawesome - https://fontawesome.com License - https://fontawesome.com/license (Commercial License) --><defs>
<font id="FontAwesome5Pro-Light" horiz-adv-x="512" >
  <font-face 
    font-family="Font Awesome 5 Pro Light"
    font-weight="300"
    font-stretch="normal"
    units-per-em="512"
    panose-1="2 0 3 3 0 0 0 0 0 0"
    ascent="448"
    descent="-64"
    bbox="-0.0663408 -64.2002 640.1 448.036"
    underline-thickness="25"
    underline-position="-50"
    unicode-range="U+0020-F8FF"
  />
    <missing-glyph />
    <glyph glyph-name="gift" unicode="&#xf06b;" 
d="M464 304c26.5 0 48 -21.5 48 -48v-96c0 -8.7998 -7.2002 -16 -16 -16h-16v-144c0 -26.5 -21.5 -48 -48 -48h-352c-26.5 0 -48 21.5 -48 48v144h-16c-8.7998 0 -16 7.2002 -16 16v96c0 26.5 21.5 48 48 48h39.2998c-9.5 13.4004 -15.2998 29.9004 -15.2998 48
c0 44.0996 33.4004 80 74.5 80c42.2998 0 66.7998 -25.4004 109.5 -95.7998c42.7002 70.3994 67.2002 95.7998 109.5 95.7998c41.0996 0 74.5 -35.9004 74.5 -80c0 -18.0996 -5.7998 -34.5996 -15.2998 -48h39.2998zM276.2 307.6l-2.2002 -3.59961h91.5
c23.4004 0 42.5 21.5 42.5 48s-19.0996 48 -42.5 48c-23.2998 0 -39.7998 -9.09961 -89.2998 -92.4004zM146.5 400c-23.4004 0 -42.5 -21.5 -42.5996 -48c0 -26.5 19.0996 -48 42.5 -48h91.5l-2.10059 3.59961c-49.5 83.3008 -65.8994 92.4004 -89.2998 92.4004zM192 -16
v160h-128v-144c0 -8.7998 7.2002 -16 16 -16h112zM192 176v96h-144c-8.7998 0 -16 -7.2002 -16 -16v-80h160zM288 -16v288h-64v-288h64zM448 0v144h-128v-160h112c8.7998 0 16 7.2002 16 16zM480 176v80c0 8.7998 -7.2002 16 -16 16h-144v-96h160z" />
    <glyph glyph-name="signature" unicode="&#xf5b7;" horiz-adv-x="640" 
d="M630.1 241.2c5 1.2002 9.90039 -2.60059 10 -10v-17.2998c0 -3.60059 -2.39941 -6.7002 -5.89941 -7.60059c-29.5 -7.2002 -70.9004 -28.3994 -101.8 -47.7002c-14.3008 -8.89941 -29 -18.0996 -39.2002 -23c-33.2002 -16 -64.6006 -31.0996 -97.2998 -31.0996
c-23.9004 0 -42.2002 7.40039 -54.6006 21.9004c-19.2002 22.6992 -18.7998 51.2998 -16.7998 78.5996l2.09961 27.9004c0.300781 4.39941 -4.7998 7 -8.19922 4.09961l-20.4004 -17.4004c-58.5 -50 -173 -168.399 -216.3 -214.699
c-3.2998 -3.5 -8.10059 -5.2002 -13 -4.90039c-4.7002 0.5 -8.90039 2.90039 -11.2998 6.59961c-3.2002 5.10059 -4.10059 12.5 -2.2002 17.7002l99.7998 267.601c6.2998 16.8994 1.90039 35.3994 -11.2998 47.0996c-7.2002 6.40039 -15.7002 9.7998 -24.7998 9.7998
c-7.40039 0 -14.8008 -2.2998 -21.4004 -6.7998l-75.7998 -51.2998c-3.90039 -2.60059 -9.2002 -1.40039 -11.5 2.7002l-9.2002 16.1992c-2 3.60059 -1 8.30078 2.5 10.6006l73.7998 49.7998c34.7002 23.7002 67.7002 13.7002 87 -3.5
c24.5 -21.7002 32.7002 -56.2002 20.9004 -87.7998l-70 -187.601l54.3994 56c87.4004 90.1006 137.4 130.9 162.101 132.5c8.7002 0.600586 14.2998 -1.2998 18.7002 -6.2998c8.19922 -9.5 10.8994 -30.3994 7.59961 -57.2998c-3.40039 -28 -3.40039 -49.5 7.90039 -63.2998
c6.89941 -8.40039 17 -12.7002 29.8994 -12.7002c25.7998 0 52.7998 13 84.1006 28.2002c11.5996 5.5 26.7998 14.5996 41.5 23.3994c31.5996 18.8008 76 41.2002 108.699 49.6006z" />
    <glyph glyph-name="baby-carriage" unicode="&#xf77d;" 
d="M504 352c4.40039 0 8 -3.59961 8 -8v-16c0 -4.40039 -3.59961 -8 -8 -8h-40c-8.7998 0 -16 -7.2002 -16 -16v-80c0 -67.2002 -40.2998 -126.2 -101.3 -160.5c1.7998 0.0996094 3.5 0.5 5.2998 0.5c35.2998 0 64 -28.7002 64 -64s-28.7002 -64 -64 -64s-64 28.7002 -64 64
c0 18.0996 7.59961 34.4004 19.5996 46c-25.7998 -9 -54 -14 -83.5996 -14s-57.7002 5.09961 -83.5996 14c12 -11.7002 19.5996 -27.9004 19.5996 -46c0 -35.2998 -28.7002 -64 -64 -64s-64 28.7002 -64 64s28.7002 64 64 64c1.7998 0 3.5 -0.400391 5.2998 -0.5
c-61 34.2998 -101.3 93.2998 -101.3 160.5v16c0 76 35.2998 147.7 96.7998 196.9c11.4004 9.09961 26.4004 12.7998 41.2002 10.2998c15.0996 -2.5 28.2998 -11.1006 36.2998 -23.7002l106.5 -167.5h135.2v48c0 26.5 21.5 48 48 48h40zM116.8 411.9
c-49.5 -39.6006 -79.5996 -95.7002 -84.2002 -155.9h210.301l-95.6006 150.4c-3.09961 4.89941 -8.39941 8.2998 -14.5996 9.2998c-3.2998 0.599609 -10 0.899414 -15.9004 -3.7998zM96 -32c17.5996 0 32 14.4004 32 32s-14.4004 32 -32 32s-32 -14.4004 -32 -32
s14.4004 -32 32 -32zM352 32c-17.5996 0 -32 -14.4004 -32 -32s14.4004 -32 32 -32s32 14.4004 32 32s-14.4004 32 -32 32zM224 64c105.9 0 192 71.7998 192 160h-384c0 -88.2002 86.0996 -160 192 -160z" />
    <glyph glyph-name="bells" unicode="&#xf77f;" horiz-adv-x="640" 
d="M638.4 134.1c4.59961 -12.8994 -1 -28.7998 -15.9004 -34.1992l-75 -27.3008c2.7002 -7.69922 4.59961 -15.7998 4.59961 -24.5c0 -44.1992 -35.7998 -80 -80 -80c-33.5996 0 -62.2998 20.7002 -74.0996 50.1006l-76 -27.7002
c-14.7002 -5.40039 -29.4004 2.7998 -34.2998 15.9004c-4.10059 11.1992 0.599609 19.5 3.39941 26l-42.0996 15.2998c-12.4004 -28.1006 -40.2998 -47.7002 -72.9004 -47.7002c-44.1992 0 -80 35.7998 -80 80c0 7.7002 1.5 15 3.60059 22l-82 29.9004
c-15 5.39941 -20.6006 21.2998 -16 34.1992c2.09961 5.90039 6.39941 11.2002 12.8994 14.5c21 10.7002 58.2002 24.9004 87.4004 105c0.799805 2.2002 14.5996 40.5 15.4004 42.6006c19.6992 54.2002 70.7998 87.7998 125.3 87.7998
c15.0996 0 30.5996 -2.59961 45.5996 -8.09961c21.4004 -7.80078 39.2998 -20.8008 53.5 -36.8008c3.40039 1.5 6.40039 3.5 10 4.80078c15.1006 5.5 30.5 8.09961 45.6006 8.09961c54.3994 0 105.6 -33.5996 125.3 -87.7998
c0.700195 -2.10059 14.5996 -40.4004 15.3994 -42.6006c29.1006 -80.0996 66.4004 -94.1992 87.4004 -105c6.5 -3.2998 10.7998 -8.59961 12.9004 -14.5zM176 32c18.7002 0 34.5996 11 42.4004 26.7002l-88.9004 32.3994c-0.900391 -3.59961 -1.5 -7.19922 -1.5 -11.0996
c0 -26.5 21.5 -48 48 -48zM300.7 62.9004c4.2998 22.1992 3.7998 53.0996 -13.1006 99.5c-0.799805 2.19922 -14.7998 40.5 -15.5996 42.5996c-20 55.0996 -1.09961 114.3 42.2002 149.1c-0.799805 0.800781 -26.9004 29.9004 -71.6006 29.9004
c-42.3994 0 -80.6992 -26.7998 -95.2998 -66.7002c-10.2998 -28.5 -7.09961 -19.7002 -15.3994 -42.5996c-28.6006 -78.7998 -67.3008 -104.2 -91.8008 -117zM472 0c26.5 0 48 21.5 48 48c0 4.7998 -0.799805 9.40039 -2.09961 13.7998l-89.3008 -32.5
c7.30078 -17.0996 23.7002 -29.2998 43.4004 -29.2998zM322.5 24.7998l277.3 101c-24.5 12.7998 -63.0996 38.2002 -91.7998 117c-10.4004 28.7998 -5.7002 15.9004 -15.4004 42.6006c-19 52.0996 -76.8994 79.8994 -129.899 60.5996
c-52.5 -19.0996 -79.7002 -77.4004 -60.6006 -129.9c10.1006 -27.5996 6 -16.2998 15.6006 -42.5996c28.5996 -78.9004 15.3994 -123.1 4.7998 -148.7z" />
    <glyph glyph-name="blog" unicode="&#xf781;" 
d="M200.3 448c169.9 -4.2998 307.4 -141.8 311.7 -311.7c0.0996094 -4.5 -3.59961 -8.2002 -8.09961 -8.2002h-16c-4.30078 0 -7.80078 3.5 -7.90039 7.90039c-4 152.8 -127.2 276.3 -280 280.1c-4.40039 0.100586 -7.90039 3.5 -7.90039 7.90039v15.9004
c0 4.5 3.7002 8.19922 8.2002 8.09961zM200.3 352c117 -4.2998 211.4 -98.7002 215.7 -215.7c0.0996094 -4.5 -3.59961 -8.2002 -8.09961 -8.2002h-15.8008c-4.39941 0 -7.7998 3.5 -8 7.80078c-3.69922 99.7998 -84.3994 180 -184.199 184
c-4.30078 0.199219 -7.80078 3.69922 -7.80078 8v16c0 4.5 3.7002 8.2998 8.2002 8.09961zM121 192c74.2002 0 138.4 -60.0996 134.9 -134.3c-3.2002 -65.6006 -56 -118.4 -121.601 -121.601c-74.2002 -3.59961 -134.3 60.7002 -134.3 134.9v233c0 8.7998 7.2002 16 16 16
h16c8.7998 0 16 -7.2002 16 -16v-234.9c0 -47.0996 38.4004 -88.0996 85.4004 -84.8994c39.7998 2.7002 71.7998 34.5996 74.3994 74.5c3.10059 46.8994 -37.8994 85.2998 -84.8994 85.2998h-10.9004c-8.7998 0 -16 7.2002 -16 16v16c0 8.7998 7.2002 16 16 16h9z" />
    <glyph glyph-name="boot" unicode="&#xf782;" 
d="M415 200.2c57 -14.2002 97 -65.4004 97 -124.101v-94.7998c0 -8.5 -3.40039 -16.5996 -9.40039 -22.5996l-13.2998 -13.2998c-6 -6 -14.0996 -9.40039 -22.5996 -9.40039h-37.5c-8.5 0 -16.6006 3.40039 -22.6006 9.40039l-22.5996 22.5996l-22.7002 -22.5996
c-6 -6 -14.0996 -9.40039 -22.5996 -9.40039h-37.5c-8.5 0 -16.6006 3.40039 -22.6006 9.40039l-22.5996 22.5996l-22.7002 -22.5996c-6 -6 -14.0996 -9.40039 -22.5996 -9.40039h-37.5c-8.5 0 -16.6006 3.40039 -22.6006 9.40039l-22.5996 22.5996l-22.5996 -22.5996
c-6 -6 -14.1006 -9.40039 -22.6006 -9.40039h-37.5c-8.5 0 -16.5996 3.40039 -22.5996 9.40039l-13.2998 13.2998c-6 6 -9.40039 14.0996 -9.40039 22.5996v434.7c0 17.7002 14.2998 32 32 32h320c17.7002 0 32 -14.2998 32 -32v-64c0 -17.7002 -14.2998 -32 -32 -32v-104z
M32 416v-64h320v64h-320zM480 -18.7002v50.7002h-448v-50.7002l13.2998 -13.2998h37.4004l22.7002 22.5996c6 6 14.0996 9.40039 22.5996 9.40039s16.5996 -3.40039 22.5996 -9.40039l22.6006 -22.5996h37.5l22.7002 22.5996c6 6 14.0996 9.40039 22.5996 9.40039
s16.5996 -3.40039 22.5996 -9.40039l22.6006 -22.5996h37.5l22.7002 22.5996c6 6 14.0996 9.40039 22.5996 9.40039s16.5996 -3.40039 22.5996 -9.40039l22.6006 -22.5996h37.5zM480 64v12.0996c0 44.1006 -29.9004 82.4004 -72.7002 93.1006l-87.2998 22.7998h-88
c-4.40039 0 -8 3.59961 -8 8v16c0 4.40039 3.59961 8 8 8h88v32h-88c-4.40039 0 -8 3.59961 -8 8v16c0 4.40039 3.59961 8 8 8h88v32h-288v-256h448z" />
    <glyph glyph-name="cash-register" unicode="&#xf788;" 
d="M232 200v-16c0 -8.7998 -7.2002 -16 -16 -16h-16c-8.7998 0 -16 7.2002 -16 16v16c0 8.7998 7.2002 16 16 16h16c8.7998 0 16 -7.2002 16 -16zM136 200v-16c0 -8.7998 -7.2002 -16 -16 -16h-16c-8.7998 0 -16 7.2002 -16 16v16c0 8.7998 7.2002 16 16 16h16
c8.7998 0 16 -7.2002 16 -16zM168 152c8.7998 0 16 -7.2002 16 -16v-16c0 -8.7998 -7.2002 -16 -16 -16h-16c-8.7998 0 -16 7.2002 -16 16v16c0 8.7998 7.2002 16 16 16h16zM264 152c8.7998 0 16 -7.2002 16 -16v-16c0 -8.7998 -7.2002 -16 -16 -16h-16
c-8.7998 0 -16 7.2002 -16 16v16c0 8.7998 7.2002 16 16 16h16zM328 200v-16c0 -8.7998 -7.2002 -16 -16 -16h-16c-8.7998 0 -16 7.2002 -16 16v16c0 8.7998 7.2002 16 16 16h16c8.7998 0 16 -7.2002 16 -16zM511.4 68.5c0.399414 -3 0.599609 -6 0.599609 -9v-75.5
c0 -26.5 -21.5 -48 -48 -48h-416c-26.5 0 -48 21.5 -48 48v75.4004c0 3.09961 0.200195 6.09961 0.599609 9.09961l25.5 178.3c3.40039 23.6006 23.6006 41.2002 47.5 41.2002h86.4004v64h-80c-8.7998 0 -16 7.2002 -16 16v64c0 8.7998 7.2002 16 16 16h192
c8.7998 0 16 -7.2002 16 -16v-64c0 -8.7998 -7.2002 -16 -16 -16h-80v-64h246.4c23.8994 0 44.0996 -17.5996 47.5 -41.2002zM96 384h160v32h-160v-32zM57.7998 242.3l-25.5 -178.3h447.4l-25.6006 178.3c-1.09961 7.7998 -7.89941 13.7002 -15.7998 13.7002h-364.7
c-7.89941 0 -14.6992 -5.90039 -15.7998 -13.7002zM480 -16v48h-448v-48c0 -8.7998 7.2002 -16 16 -16h416c8.7998 0 16 7.2002 16 16zM408 216c8.7998 0 16 -7.2002 16 -16v-16c0 -8.7998 -7.2002 -16 -16 -16h-16c-8.7998 0 -16 7.2002 -16 16v16
c0 8.7998 7.2002 16 16 16h16zM360 152c8.7998 0 16 -7.2002 16 -16v-16c0 -8.7998 -7.2002 -16 -16 -16h-16c-8.7998 0 -16 7.2002 -16 16v16c0 8.7998 7.2002 16 16 16h16z" />
    <glyph glyph-name="chart-network" unicode="&#xf78a;" horiz-adv-x="640" 
d="M513.6 245.2l-48 -36l-19.1992 25.5996l48 36zM576 256c-35.2998 0 -64 28.7002 -64 64c0 13.2998 4 25.5996 10.9004 35.7998c4.59961 6.7998 10.5 12.7002 17.2998 17.2998c10.2002 6.90039 22.5 10.9004 35.7998 10.9004s25.5996 -4 35.7998 -10.9004
c3.40039 -2.2998 6.60059 -4.89941 9.5 -7.7998c2.90039 -2.89941 5.5 -6.09961 7.7998 -9.5c6.90039 -10.2002 10.9004 -22.5 10.9004 -35.7998s-4 -25.5996 -10.9004 -35.7998c-4.59961 -6.7998 -10.5 -12.7002 -17.2998 -17.2998
c-10.2002 -6.90039 -22.5 -10.9004 -35.7998 -10.9004zM576 352c-17.5996 0 -32 -14.4004 -32 -32s14.4004 -32 32 -32s32 14.4004 32 32s-14.4004 32 -32 32zM99.7998 197.1c6.7998 -4.59961 12.7002 -10.5 17.2998 -17.2998
c6.90039 -10.2002 10.9004 -22.5 10.9004 -35.7998c0 -35.2998 -28.7002 -64 -64 -64s-64 28.7002 -64 64c0 13.2998 4 25.5996 10.9004 35.7998c4.59961 6.7998 10.5 12.7002 17.2998 17.2998c10.2002 6.90039 22.5 10.9004 35.7998 10.9004s25.5996 -4 35.7998 -10.9004z
M64 112c17.5996 0 32 14.4004 32 32s-14.4004 32 -32 32s-32 -14.4004 -32 -32s14.4004 -32 32 -32zM152 128v32h48v-32h-48zM621.3 45.2998c2.7998 -2.89941 5.5 -6.09961 7.7998 -9.5c6.90039 -10.2002 10.9004 -22.5 10.9004 -35.7998s-4 -25.5996 -10.7998 -35.7998
c-4.60059 -6.7998 -10.5 -12.7002 -17.2998 -17.2998c-10.2002 -6.90039 -22.5 -10.9004 -35.8008 -10.9004c-35.2998 0 -64 28.7002 -64 64c0 6.2998 1 12.2998 2.7002 18.0996l-92.3994 55.4004c-20.6006 -25.0996 -51.4004 -41.5 -86.4004 -41.5
c-61.9004 0 -112 50.0996 -112 112c0 39.2002 20.2002 73.5996 50.7002 93.5996l-39 83.6006c-3.7998 -0.700195 -7.7002 -1.2002 -11.7002 -1.2002c-35.2998 0 -64 28.7002 -64 64c0 13.2998 4 25.5996 10.9004 35.7998c4.59961 6.7998 10.5 12.7002 17.2998 17.2998
c10.2002 6.90039 22.5 10.9004 35.7998 10.9004s25.5996 -4 35.7998 -10.9004c6.7998 -4.59961 12.7002 -10.5 17.2998 -17.2998c6.90039 -10.2002 10.9004 -22.5 10.9004 -35.7998c0 -19.9004 -9.2002 -37.4004 -23.5 -49.0996l39.2998 -84.1006
c10.2998 3 20.9004 5.2002 32.2002 5.2002c61.9004 0 112 -50.0996 112 -112c0 -15.2998 -3.09961 -30 -8.7002 -43.2998l91.7998 -55.1006c2.80078 2.80078 5.80078 5.30078 9.10059 7.5c10.2002 6.90039 22.5 10.9004 35.7998 10.9004s25.5996 -4 35.7998 -10.9004
c3.40039 -2.2998 6.60059 -4.89941 9.5 -7.7998zM224 352c17.5996 0 32 14.4004 32 32s-14.4004 32 -32 32s-32 -14.4004 -32 -32s14.4004 -32 32 -32zM336 64c44.0996 0 80 35.9004 80 80s-35.9004 80 -80 80s-80 -35.9004 -80 -80s35.9004 -80 80 -80zM576 -32
c17.5996 0 32 14.4004 32 32s-14.4004 32 -32 32s-32 -14.4004 -32 -32s14.4004 -32 32 -32z" />
    <glyph glyph-name="chimney" unicode="&#xf78b;" 
d="M480 448c17.7002 0 32 -14.2998 32 -32v-128c0 -17.7002 -14.2998 -32 -32 -32v-304c0 -8.7998 -7.2002 -16 -16 -16h-416c-8.7998 0 -16 7.2002 -16 16v304c-17.7002 0 -32 14.2998 -32 32v128c0 17.7002 14.2998 32 32 32h448zM64 256v-128h96v128h-96zM64 -32h256v128
h-256v-128zM448 -32v128h-96v-128h96zM448 128v128h-256v-128h256zM480 288v128h-448v-128h448z" />
    <glyph glyph-name="compress-arrows-alt" unicode="&#xf78c;" 
d="M312 224c-13.2998 0 -24 10.7002 -24 23.9004v112c0 14.5 11.9004 24.0996 24.2002 24.0996c5.89941 0 11.8994 -2.2002 16.7998 -7.09961l44.5996 -44.6006l113.4 113.4c3.09961 3.09961 8.2002 3.09961 11.2998 0l11.4004 -11.4004
c3.09961 -3.09961 3.09961 -8.2002 0 -11.2998l-113.4 -113.3l44.7002 -44.7002c15.0996 -15.0996 4.40039 -41 -17 -41h-112zM320 340.7v-84.7002h84.7002zM396.3 74.4004l113.3 -113.5c3.10059 -3.10059 3.10059 -8.2002 0 -11.3008l-11.2998 -11.2998
c-3.09961 -3.09961 -8.2002 -3.09961 -11.2998 0l-113.3 113.5l-44.7002 -44.7002c-15.0996 -15.0996 -41 -4.39941 -41 17v112c0 13.3008 10.7002 24 24 24h112c14.5 0 24.0996 -11.8994 24.0996 -24.1992c0 -5.90039 -2.19922 -11.9004 -7.09961 -16.8008zM320 43.2998
l84.7002 84.7002h-84.7002v-84.7002zM200 160c13.2998 0 24 -10.7002 24 -24v-111.9c0 -14.5 -11.9004 -24.0996 -24.2002 -24.0996c-5.89941 0 -11.8994 2.2002 -16.7998 7.09961l-44.7002 44.7002l-113.399 -113.399c-3.10059 -3.10059 -8.2002 -3.10059 -11.3008 0
l-11.2998 11.2998c-3.09961 3.09961 -3.09961 8.2002 0 11.2998l113.4 113.3l-44.7002 44.7002c-15.0996 15.0996 -4.40039 41 17 41h112zM192 43.2998v84.7002h-84.7002zM183 376.9c15.0996 15.0996 41 4.39941 41.0996 -16.9004v-112c0 -13.2998 -10.6992 -24 -24 -24
h-112c-14.5 0 -24.0996 11.9004 -24.0996 24.2002c0 5.89941 2.2002 11.8994 7.09961 16.7998l44.6006 44.5996l-113.4 113.4c-3.09961 3.09961 -3.09961 8.2002 0 11.2998l11.4004 11.4004c3.09961 3.09961 8.2002 3.09961 11.2998 0l113.3 -113.5zM192 256v84.7002
l-84.7002 -84.7002h84.7002z" />
    <glyph glyph-name="deer" unicode="&#xf78e;" 
d="M400 288c8.7998 0 16 -7.2002 16 -16s-7.2002 -16 -16 -16s-16 7.2002 -16 16s7.2002 16 16 16zM488.7 314.7c13.7002 -3.90039 23.2998 -16.5 23.2998 -30.7998v-43.9004c0 -26.5 -21.5 -48 -48 -48h-48l-32 -64v-160c0 -17.7002 -14.2998 -32 -32 -32h-64
c-17.7002 0 -32 14.2998 -32 32v128h-103.4l-19.3994 -51.7002l17 -68.5996c5 -20.2002 -10.2998 -39.7002 -31.1006 -39.7002h-47.6992c-13.9004 0 -26.3008 9 -30.5 22.2998l-23 72.4004c-3.10059 12.5996 -2.40039 25.7998 2.19922 38l11.9004 31.7998v27.5h-32v32
c0 53 43 96 96 96h208l33.7998 67.7998l-78.8994 22.2002c-20.7002 5.7998 -35 24.7002 -35 46.2002v47.7998c0 4.40039 3.59961 8 8 8h16c4.39941 0 8 -3.59961 8 -8v-47.7998c0 -7.2002 4.7998 -13.5 11.6992 -15.4004l16.1006 -4.5l16.7998 20.9004
c2.2998 2.89941 3.5 6.39941 3.5 10v36.7998c0 4.40039 3.59961 8 8 8h16c4.40039 0 8 -3.59961 8 -8v-36.7998c0 -10.9004 -3.7002 -21.5 -10.5 -30l-8.2998 -10.2998l33.7998 -9.5l42.5996 21.2998c7.5 3.7002 13.9004 9.2998 18.5 16.2998l18 27.2002
c2.5 3.7002 7.40039 4.7002 11.1006 2.2002l13.2998 -8.90039c3.7002 -2.5 4.7002 -7.40039 2.2002 -11.0996l-18.1006 -27.2002c-7.69922 -11.5 -18.2998 -20.9004 -30.6992 -27.1006l-11.1006 -5.59961zM480 240h0.0996094v31.7998
c0 7.2002 -4.7998 13.5 -11.6992 15.4004l-73.6006 20.7002c-14.7998 4.09961 -30.3994 -2.80078 -37.2998 -16.5l-33.7002 -67.4004h-227.8c-35.2998 0 -64 -28.7002 -64 -64h32.0996v-65.4004l-14 -37.1992c-2.19922 -5.90039 -2.69922 -12.1006 -1.2998 -18.2002
l22.6006 -71.2002h47.6992l-19.3994 78.2002l30.7002 81.7998h157.6v-160h64v167.6l44.2002 88.4004h67.7998c8.7998 0 16 7.2002 16 16z" />
    <glyph glyph-name="deer-rudolph" unicode="&#xf78f;" 
d="M368 288c8.7998 0 16 -7.2002 16 -16s-7.2002 -16 -16 -16s-16 7.2002 -16 16s7.2002 16 16 16zM480 336c17.7002 0 32 -14.2998 32 -32s-14.2998 -32 -32 -32v-32c0 -26.5 -21.5 -48 -48 -48h-48l-32 -64v-160c0 -17.7002 -14.2998 -32 -32 -32h-64
c-17.7002 0 -32 14.2998 -32 32v128h-71.4004l-19.3994 -51.7002l17 -68.5996c5 -20.2002 -10.2998 -39.7002 -31.1006 -39.7002h-47.6992c-13.9004 0 -26.3008 9 -30.5 22.2998l-23 72.4004c-3.10059 12.5996 -2.40039 25.7998 2.19922 38l11.9004 31.7998v27.5h-32v32
c0 53 43 96 96 96h176l33.7998 67.7998l-78.8994 22.2002c-20.7002 5.7998 -35 24.7002 -35 46.2002v47.7998c0 4.40039 3.59961 8 8 8h16c4.39941 0 8 -3.59961 8 -8v-47.7998c0 -7.2002 4.7998 -13.5 11.6992 -15.4004l16.1006 -4.5l16.7998 20.9004
c2.2998 2.89941 3.5 6.39941 3.5 10v36.7998c0 4.40039 3.59961 8 8 8h16c4.40039 0 8 -3.59961 8 -8v-36.7998c0 -10.9004 -3.7002 -21.5 -10.5 -30l-8.2998 -10.2998l33.7998 -9.5l42.5996 21.2998c7.5 3.7002 13.9004 9.2998 18.5 16.2998l18 27.2998
c2.5 3.7002 7.40039 4.7002 11.1006 2.2002l13.2998 -8.90039c3.7002 -2.5 4.7002 -7.39941 2.2002 -11.0996l-18.1006 -27.2002c-7.69922 -11.5 -18.2998 -20.8994 -30.6992 -27.0996l-11.1006 -5.60059l85.7002 -24.0996c4.90039 11.4004 16.2002 19.5 29.5 19.5zM448 240
h0.0996094v31.7998c0 7.2002 -4.7998 13.5 -11.6992 15.4004l-73.6006 20.7002c-14.7998 4.09961 -30.3994 -2.80078 -37.2998 -16.5l-33.7002 -67.4004h-195.8c-35.2998 0 -64 -28.7002 -64 -64h32.0996v-65.4004l-14 -37.1992
c-2.19922 -5.90039 -2.69922 -12.1006 -1.2998 -18.2002l22.6006 -71.2002h47.6992l-19.3994 78.2002l30.7002 81.7998h125.6v-160h64v167.6l44.2002 88.4004h67.7998c8.7998 0 16 7.2002 16 16z" />
    <glyph glyph-name="dreidel" unicode="&#xf792;" horiz-adv-x="448" 
d="M438.6 384c12.5 -12.5 12.5 -32.7998 0.100586 -45.2002l-92.6006 -92.5996l60.6006 -60.6006c13.0996 -13.0996 13.0996 -34.1992 0 -47.2998l-150.7 -150.7c-12.5996 -12.5996 -29.5996 -19.5996 -47.2998 -19.5996h-141.8c-37 0 -66.9004 29.9004 -66.9004 66.9004
v141.8c0 17.7998 7 34.7998 19.5996 47.2998l150.7 150.6c6.5 6.5 15.1006 9.80078 23.6006 9.80078s17.0996 -3.30078 23.5996 -9.80078l60.5996 -60.5996l92.6006 92.5996c12.5 12.5 32.7998 12.5 45.2998 0zM233.4 10.2002l59.3994 59.3994l-191.2 191.2
l-59.3994 -59.3994c-6.60059 -6.60059 -10.2002 -15.4004 -10.2002 -24.7002v-141.8c0 -19.3008 15.5996 -34.9004 34.9004 -34.9004h141.8c9.39941 0 18.0996 3.59961 24.7002 10.2002zM384 160.9c0.599609 0.5 0.599609 1.5 0 2l-189.1 189.1l-1 0.400391
c-0.600586 0 -0.900391 -0.300781 -1 -0.400391l-68.7002 -68.5996l191.1 -191.2zM323.4 268.8l92.5996 92.6006l-22.5996 22.5996l-92.6006 -92.5996z" />
    <glyph glyph-name="dumpster" unicode="&#xf793;" horiz-adv-x="576" 
d="M568 192c4.40039 0 8 -3.59961 8 -8v-16c0 -4.40039 -3.59961 -8 -8 -8h-38.2002l-17.7998 -160v-16c0 -8.7998 -7.2002 -16 -16 -16h-64c-8.7998 0 -16 7.2002 -16 16v16h-256v-16c0 -8.7998 -7.2002 -16 -16 -16h-64c-8.7998 0 -16 7.2002 -16 16v16l-17.7998 160
h-38.2002c-4.40039 0 -8 3.59961 -8 8v16c0 4.40039 3.59961 8 8 8h34.5996l-7.09961 64h-19.5c-10.4004 0 -18 12.2002 -15.5 24.9004l24 120c1.7998 8.89941 8.2002 15.0996 15.5 15.0996h496c7.2998 0 13.7002 -6.2002 15.5 -15.0996l24 -120
c2.5 -12.7002 -5.09961 -24.9004 -15.5 -24.9004h-19.5996l-7.10059 -64h34.7002zM541.4 288l-19.2002 96h-78.7002l19.2002 -96h78.7002zM145.9 288h126.1v96h-106.9zM304 384v-96h126.1l-19.1992 96h-106.9zM53.7998 384l-19.2002 -96h78.7002l19.2002 96h-78.7002zM480 0
l28.2998 256h-440.5l28.2002 -256h32v32h320v-32h32z" />
    <glyph glyph-name="dumpster-fire" unicode="&#xf794;" horiz-adv-x="640" 
d="M551.1 284.8c51.8008 -46.2002 88.9004 -121.8 88.8008 -158.399c0 -87.5 -71.6006 -158.4 -160 -158.4c-88.4004 0 -160 70.9004 -160 158.4c0 49.2998 49.7998 130.899 120 193.6c27.3994 -24.4004 51.5 -50.5996 71 -76.4004
c11.8994 14 25.2998 27.9004 40.1992 41.2002zM494.1 1.40039c31.7002 6.39941 55.7002 34.1992 55.6006 67.3994c0 8 -9.2998 31.9004 -25.5 54.1006c-0.100586 0 -0.100586 -0.100586 -0.200195 -0.200195l-25.9004 -30.5l-24.0996 31.8994
c-5.7998 7.7002 -12.2998 15.4004 -19.4004 23c-29.0996 -32.1992 -44.5 -64.2998 -44.5 -78.2998c0 -33.2002 24 -61 55.8008 -67.3994c4.69922 -0.5 9.19922 -1.40039 14.0996 -1.40039s9.40039 0.900391 14.0996 1.40039zM579.6 48
c17.5 21.5996 28.4004 48.5996 28.2002 78.4004c0 21.8994 -23.2002 73.3994 -57.5 113.3c-5.2002 -5.40039 -10.2002 -11 -15.0996 -16.7998l-25.9004 -30.5l-24.0996 31.8994c-13.1006 17.2998 -28.5 34.9004 -45.2998 51.6006
c-55.6006 -56.3008 -88.1006 -117.9 -88.1006 -149.5c0 -29.7002 10.9004 -56.8008 28.4004 -78.4004c-1.40039 6.7002 -2.2002 13.7002 -2.2002 20.7998c0 31.2998 31.7002 83.2998 76.4004 123.2c17.3994 -15.5 32.7998 -32.2002 45.1992 -48.5996
c7.60059 8.89941 16.1006 17.7998 25.6006 26.1992c33 -29.3994 56.5996 -77.5 56.5996 -100.8c0 -7.09961 -0.799805 -14.0996 -2.2002 -20.7998zM128 32h185.5c6.59961 -11.5 14.5 -22.2002 23.2998 -32h-176.8v-16c0 -8.7998 -7.2002 -16 -16 -16h-64
c-8.7998 0 -16 7.2002 -16 16v16l-17.7998 160h-38.2002c-4.40039 0 -8 3.59961 -8 8v16c0 4.40039 3.59961 8 8 8h34.5996l-7.09961 64h-19.5c-10.4004 0 -18 12.2002 -15.5 24.9004l24 120c1.7998 8.89941 8.2002 15.0996 15.5 15.0996h496
c7.2998 0 13.7002 -6.2002 15.5 -15.0996l18.0996 -90.5c-5.59961 4 -11.8994 6.39941 -18.5 6.39941c-5.09961 0 -10 -1.7002 -14.5996 -4.09961l-14.2998 71.2998h-78.7002l6.7998 -33.9004c-3.2998 1.2002 -6.7998 1.90039 -10.2998 1.90039
c-7.5 0 -15.0996 -2.7002 -21.0996 -8l-8 40h-106.9v-96h60.9004c-8.80078 -10.5996 -16.8008 -21.2998 -24.3008 -32h-272.8l28.2002 -256h32v32zM165.1 384l-19.1992 -96h126.1v96h-106.9zM34.5996 288h78.7002l19.2002 96h-78.7002z" />
    <glyph glyph-name="ear-muffs" unicode="&#xf795;" horiz-adv-x="640" 
d="M640 96c0 -5.5 -0.799805 -10.7998 -2.40039 -15.9004c1.60059 -5.19922 2.40039 -10.5 2.40039 -16c0 -15.0996 -6.09961 -28.8994 -16 -39c0.400391 -24.1992 -14.5 -45 -35.7998 -53.2998c-8.10059 -20.8994 -28.5 -35.7998 -52.2002 -35.7998
c-5.5 0 -10.7998 0.799805 -16 2.40039c-5.2002 -1.60059 -10.5 -2.40039 -16 -2.40039c-30.9004 0 -56 25.0996 -56 56c0 7.7002 1.59961 15.2002 4.5 22c-8.90039 20.9004 -2.2002 38.7998 0 44c-8.90039 20.9004 -2.2002 38.7998 0 44
c-8.90039 20.9004 -2.2002 38.7998 0 44c-2.90039 6.7998 -4.5 14.2998 -4.5 22c0 30.9004 25.0996 56 56 56c2.7002 0 5.2998 -0.799805 8 -1.2002v1.2002c0 105.9 -86.0996 192 -192 192s-192 -86.0996 -192 -192v-1.2002c2.7002 0.400391 5.2998 1.2002 8 1.2002
c30.9004 0 56 -25.0996 56 -56c0 -7.7002 -1.59961 -15.2002 -4.5 -22c8.90039 -20.9004 2.2002 -38.7998 0 -44c8.90039 -20.9004 2.2002 -38.7998 0 -44c8.90039 -20.9004 2.2002 -38.7998 0 -44c2.90039 -6.7998 4.5 -14.2998 4.5 -22c0 -30.9004 -25.0996 -56 -56 -56
c-5.5 0 -10.7998 0.799805 -16 2.40039c-5.2002 -1.60059 -10.5 -2.40039 -16 -2.40039c-23.7998 0 -44.0996 14.9004 -52.2002 35.7002c-21.3994 8.2998 -36.2002 29.2002 -35.7998 53.2998c-9.90039 10.0996 -16 23.9004 -16 39c0 5.5 0.799805 10.7998 2.40039 16
c-1.60059 5.2002 -2.40039 10.5 -2.40039 16c0 15.0996 6.09961 28.9004 16 39c-0.400391 24.0996 14.5 44.9004 35.7998 53.2998c7.2002 18.4004 24 31.5 44.2002 34.5v1.2002c0 123.5 100.5 224 224 224s224 -100.5 224 -224v-1.2002
c20.0996 -2.89941 37 -16 44.2002 -34.5c21.3994 -8.2998 36.2002 -29.2002 35.7998 -53.2998c9.90039 -10.0996 16 -23.9004 16 -39zM136 192c-6.2002 0 -11.7002 -2.5 -16 -6.40039c-4.2998 3.90039 -9.7998 6.40039 -16 6.40039c-13.2998 0 -24 -10.7002 -24 -24
c0 -4 1.2002 -7.7002 3 -11c-3.2998 1.7998 -7 3 -11 3c-13.2998 0 -24 -10.7002 -24 -24c0 -6.2998 2.59961 -12 6.59961 -16.2998c-12.5996 -0.799805 -22.5996 -11 -22.5996 -23.7002c0 -6.2002 2.5 -11.7002 6.40039 -16
c-3.90039 -4.2998 -6.40039 -9.7998 -6.40039 -16c0 -12.7002 10 -22.9004 22.5996 -23.7002c-4 -4.2998 -6.59961 -10 -6.59961 -16.2998c0 -13.2998 10.7002 -24 24 -24c4 0 7.7002 1.2002 11 3c-1.7998 -3.2998 -3 -7 -3 -11c0 -13.2998 10.7002 -24 24 -24
c6.2002 0 11.7002 2.5 16 6.40039c4.2998 -3.90039 9.7998 -6.40039 16 -6.40039c13.2998 0 24 10.7002 24 24c0 9.90039 -6 18.2998 -14.5 22c8.5 3.7002 14.5 12.0996 14.5 22s-6 18.2998 -14.5 22c8.5 3.7002 14.5 12.0996 14.5 22s-6 18.2998 -14.5 22
c8.5 3.7002 14.5 12.0996 14.5 22s-6 18.2998 -14.5 22c8.5 3.7002 14.5 12.0996 14.5 22c0 13.2998 -10.7002 24 -24 24zM608 64c0 6.2002 -2.5 11.7002 -6.40039 16c3.90039 4.2998 6.40039 9.7998 6.40039 16c0 12.7002 -10 22.9004 -22.5996 23.7002
c4 4.2998 6.59961 10 6.59961 16.2998c0 13.2998 -10.7002 24 -24 24c-4 0 -7.7002 -1.2002 -11 -3c1.7998 3.2998 3 7 3 11c0 13.2998 -10.7002 24 -24 24c-6.2002 0 -11.7002 -2.5 -16 -6.40039c-4.2998 3.90039 -9.7998 6.40039 -16 6.40039
c-13.2998 0 -24 -10.7002 -24 -24c0 -9.90039 6 -18.2998 14.5 -22c-8.5 -3.7002 -14.5 -12.0996 -14.5 -22s6 -18.2998 14.5 -22c-8.5 -3.7002 -14.5 -12.0996 -14.5 -22s6 -18.2998 14.5 -22c-8.5 -3.7002 -14.5 -12.0996 -14.5 -22s6 -18.2998 14.5 -22
c-8.5 -3.7002 -14.5 -12.0996 -14.5 -22c0 -13.2998 10.7002 -24 24 -24c6.2002 0 11.7002 2.5 16 6.40039c4.2998 -3.90039 9.7998 -6.40039 16 -6.40039c13.2998 0 24 10.7002 24 24c0 4 -1.2002 7.7002 -3 11c3.2998 -1.7998 7 -3 11 -3c13.2998 0 24 10.7002 24 24
c0 6.2998 -2.59961 12 -6.59961 16.2998c12.5996 0.799805 22.5996 11 22.5996 23.7002z" />
    <glyph glyph-name="ethernet" unicode="&#xf796;" 
d="M496 256c8.7998 0 16 -7.2002 16 -16v-224c0 -8.7998 -7.2002 -16 -16 -16h-480c-8.7998 0 -16 7.2002 -16 16v224c0 8.7998 7.2002 16 16 16h48v48c0 8.7998 7.2002 16 16 16h48v48c0 8.7998 7.2002 16 16 16h224c8.7998 0 16 -7.2002 16 -16v-48h48
c8.7998 0 16 -7.2002 16 -16v-48h48zM480 32v192h-64v64h-64v64h-192v-64h-64v-64h-64v-192h64v128h32v-128h64v128h32v-128h64v128h32v-128h64v128h32v-128h64z" />
    <glyph glyph-name="fireplace" unicode="&#xf79a;" horiz-adv-x="640" 
d="M624 448c8.7998 0 16 -7.2002 16 -16v-96c0 -8.7998 -7.2002 -16 -16 -16h-16v-352c0 -17.7002 -14.2998 -32 -32 -32h-64c-17.7002 0 -32 14.2998 -32 32v128c0 88.4004 -71.5996 160 -160 160c-5.2002 0 -10.4004 -0.299805 -15.7002 -0.799805
c-83.2002 -7.90039 -144.3 -82.5 -144.3 -166.101v-121.1c0 -17.7002 -14.2998 -32 -32 -32h-64c-17.7002 0 -32 14.2998 -32 32v352h-16c-8.7998 0 -16 7.2002 -16 16v96c0 8.7998 7.2002 16 16 16h608zM576 -32v352h-512v-352h64v121.1c0 101.801 76.0996 188.7 173.2 198
c6.39941 0.600586 12.5996 0.900391 18.7998 0.900391c105.9 0 192 -86.0996 192 -192v-128h64zM608 352v64h-576v-64h576zM342.3 136.4c8.5 10.1992 18.2002 20.3994 28.9004 30c37.2998 -33.6006 64 -88.6006 64 -115.2c0 -63.6006 -51.6006 -115.2 -115.2 -115.2
s-115.2 51.5996 -115.2 115.2c0 35.7998 35.9004 95.2002 86.4004 140.8c19.7002 -17.7998 37.0996 -36.7998 51.0996 -55.5996zM320 -32c45.9004 0 83.2002 37.2998 83.2002 83.2002c0 11.3994 -12.2998 41.8994 -32.7998 68.7998l-3.60059 -4.2002l-26 -30.8994
l-24.2002 32.3994c-7.5 10 -16 20.1006 -25.2998 29.9004c-34.0996 -37.1006 -54.5 -76.4004 -54.5 -96c0 -45.9004 37.2998 -83.2002 83.2002 -83.2002z" />
    <glyph glyph-name="frosty-head" unicode="&#xf79b;" horiz-adv-x="384" 
d="M376 224c4.40039 0 8 -3.59961 8 -7.90039v-16c0 -4.39941 -3.59961 -8 -8 -8h-37.9004c13 -19.3994 22.6006 -41.0996 26.9004 -64.6992c13.2998 -73.6006 -18.9004 -140.101 -72.7998 -177.7c-12.6006 -8.7998 -27.7002 -13.6006 -43.1006 -13.6006h-20.7998
c4.2998 6.30078 11.7998 17 20.7998 32c8.90039 0 17.4004 2.7002 24.8008 7.80078c47.0996 32.7998 70 88.5996 59.6992 145.699c-4.89941 26.7002 -17.5 50.9004 -35.0996 70.4004h-211.7c-23.8994 -25.7002 -38.7998 -59.7998 -38.7998 -97.7002
c0 -49.5 25.0996 -95 67.2998 -121.8c5.7998 -3.7002 13.5 -4.5 19 -4.5h0.700195c9 -15 16.4004 -25.7002 20.7998 -32h-21.5996c-12.6006 0 -25.5 2.7002 -36.2002 9.5c-49.2002 31.2998 -82 86 -82 148.8c0 36.2002 11 69.7002 29.5 97.7002h-37.5
c-4.40039 0 -8 3.59961 -8 8v16c0 4.40039 3.59961 8 8 8h56v192c0 17.7002 14.2998 32 32 32h192c17.7002 0 32 -14.2998 32 -32v-192h56zM288 224v64h-192v-64h192zM288 320v96h-192v-96h192zM245.3 42.7002c0 -27.6006 -39.0996 -82.2998 -53.2998 -102.8
c-14.0996 20.5 -53.2998 75.1992 -53.2998 102.8c0 29.3994 23.8994 53.2998 53.2998 53.2998s53.2998 -23.9004 53.2998 -53.2998zM192 64c-11.7998 0 -21.2998 -9.59961 -21.2998 -21.2998c0 -6.7002 9.7002 -26.1006 21.2998 -45.2002
c11.5996 19.2002 21.2998 38.5 21.2998 45.2002c0 11.7002 -9.5 21.2998 -21.2998 21.2998zM256 96c-11.7998 0 -21.2998 9.59961 -21.2998 21.2998s9.5 21.2998 21.2998 21.2998c11.7002 0 21.2998 -9.5 21.2998 -21.2998c0 -11.7002 -9.5 -21.2998 -21.2998 -21.2998z
M149.3 117.3c0 -11.7002 -9.5 -21.2998 -21.2998 -21.2998c-11.7002 0 -21.2998 9.5 -21.2998 21.2998c0 11.7002 9.5 21.2998 21.2998 21.2998c11.7002 0 21.2998 -9.5 21.2998 -21.2998z" />
    <glyph glyph-name="gifts" unicode="&#xf79c;" horiz-adv-x="640" 
d="M608 224c17.7002 0 32 -14.2998 32 -32v-224c0 -17.7002 -14.2998 -32 -32 -32h-576c-17.7002 0 -32 14.2998 -32 32v352c0 17.7002 14.2998 32 32 32h70.4004l-43 30.7002c-3.60059 2.59961 -4.5 7.59961 -1.90039 11.2002l9.2998 13
c2.60059 3.59961 7.60059 4.5 11.2002 1.89941l53 -37.8994l-22.7998 60.6992c-1.5 4.10059 0.599609 8.7002 4.7002 10.3008l15 5.59961c4.09961 1.5 8.69922 -0.599609 10.2998 -4.7002l21.7998 -58.0996l21.7998 58.0996c1.5 4.2002 6.2002 6.2998 10.2998 4.7002
l15 -5.59961c4.2002 -1.60059 6.30078 -6.2002 4.7002 -10.3008l-22.7998 -60.6992l53.0996 38c3.60059 2.5 8.60059 1.69922 11.2002 -1.90039l9.2998 -13c2.5 -3.59961 1.7002 -8.59961 -1.89941 -11.2002l-43.1006 -30.7998h70.4004c17.7002 0 32 -14.2998 32 -32
v-2.7998c6.2002 1.59961 12.5996 2.7998 19.7998 2.7998c42.9004 0 74.5 -34.7998 92.2002 -62.2002c17.5996 27.4004 49.2998 62.2002 92.2002 62.2002c42.5 0 67.7998 -31.5996 67.7998 -62.0996c0 -12.4004 -4.2002 -23.9004 -11.2998 -33.9004h27.2998zM339.8 288
c-22.3994 0 -35.7998 -15.2998 -35.7998 -30.0996c0 -8.7002 4.09961 -16.5 11.9004 -22.5c6.69922 -5.2002 19.1992 -11.4004 41.0996 -11.4004h57.5c-8.7002 18.0996 -37.0996 64 -74.7002 64zM224 192c0 17.7002 14.2998 32 32 32h27.2998
c-7.2002 10 -11.2998 21.5 -11.2998 33.9004c0 14.2998 5.7002 28.6992 16 40.0996v22h-256v-352h192v224zM416 -32v96h-160v-96h160zM416 96v96h-160v-96h160zM524.2 288c-37.6006 0 -66 -45.9004 -74.7002 -64h57.5c21.9004 0 34.4004 6.2002 41.0996 11.4004
c7.80078 6 11.9004 13.7998 11.9004 22.5c0 14.7998 -13.4004 30.0996 -35.7998 30.0996zM608 -32v96h-160v-96h160zM608 96v96h-160v-96h160z" />
    <glyph glyph-name="gingerbread-man" unicode="&#xf79d;" horiz-adv-x="448" 
d="M224 112c8.7998 0 16 -7.2002 16 -16s-7.2002 -16 -16 -16s-16 7.2002 -16 16s7.2002 16 16 16zM192 360c8.7998 0 16 -7.2002 16 -16s-7.2002 -16 -16 -16s-16 7.2002 -16 16s7.2002 16 16 16zM224 176c8.7998 0 16 -7.2002 16 -16s-7.2002 -16 -16 -16
s-16 7.2002 -16 16s7.2002 16 16 16zM224 240c8.7998 0 16 -7.2002 16 -16s-7.2002 -16 -16 -16s-16 7.2002 -16 16s7.2002 16 16 16zM256 360c8.7998 0 16 -7.2002 16 -16s-7.2002 -16 -16 -16s-16 7.2002 -16 16s7.2002 16 16 16zM448 208
c0 -44.0996 -35.9004 -80 -80 -80h-28l58 -61.5996c27.7998 -34.2002 22.5996 -84.7002 -11.5996 -112.5c-14.2002 -11.5 -32.1006 -17.9004 -50.4004 -17.9004c-24.2002 0 -46.9004 10.7998 -62.0996 29.5996l-49.9004 51.6006l-49.9004 -51.6006
c-15.1992 -18.7998 -37.8994 -29.5996 -62.0996 -29.5996c-18.2998 0 -36.2002 6.40039 -50.5 17.9004c-34.2002 27.7998 -39.4004 78.2998 -11.5996 112.5l58 61.5996h-27.9004c-44.0996 0 -80 35.9004 -80 80s35.9004 80 80 80h39.7998
c-6.39941 14.2998 -9.7998 30 -9.7998 46c0 30.5 11.9004 59.0996 33.4004 80.5996s50.0996 33.4004 80.5996 33.4004c10.0996 0 20.2002 -1.2998 30.2002 -3.90039c38.5996 -10.0996 70.0996 -41.6992 80 -80.5c6.7998 -26.1992 4.5 -52.5 -5.7998 -75.5996h39.5996
c44.0996 0 80 -35.9004 80 -80zM304.6 120.9c-12.6992 15.6992 -1.5 39.0996 18.7002 39h44.7002c26.5 0 48 21.5 48 48s-21.5 48 -48 48h-81.5996c-9.40039 0 -14.1006 11.5 -7.2002 17.7998c21.2998 19.2002 32.2998 49.3994 24 81.8994
c-7 27.7002 -29.5 50.3008 -57.1006 57.5c-7.5 2 -14.8994 2.90039 -22.0996 2.90039c-45.2998 0 -82 -36.7002 -82 -82c0 -24 10.4004 -45.4004 26.9004 -60.2998c6.89941 -6.2002 2 -17.7002 -7.30078 -17.7002h-81.5996c-26.5 0 -48 -21.5 -48 -48s21.5 -48 48 -48
h44.7998c20.2002 0 31.2998 -23.4004 18.6006 -39.0996l-68.6006 -74.6006c-16.7002 -20.5996 -13.5996 -50.7998 7 -67.5c8.90039 -7.2998 19.6006 -10.7998 30.2002 -10.7998c14 0 27.7998 6 37.2998 17.7002l49.9004 51.5996
c6.39941 7.90039 15.5996 11.7998 24.7998 11.7998s18.4004 -3.89941 24.7998 -11.7998l49.9004 -51.5996c9.5 -11.6006 23.2998 -17.7002 37.2998 -17.7002c10.5996 0 21.2998 3.59961 30.2002 10.7998c20.5996 16.7002 23.7002 46.9004 7 67.5z" />
    <glyph glyph-name="glass-champagne" unicode="&#xf79e;" horiz-adv-x="256" 
d="M255 235.7c9 -68.7998 -42 -129.601 -111 -138v-129.7h53.2002c14.7998 0 26.7002 -12 26.7002 -26.7002c0 -2.89941 -2.30078 -5.2998 -5.30078 -5.2998h-181.3c-2.89941 0 -5.2998 2.40039 -5.2998 5.2998c0 14.7998 11.9004 26.7002 26.7002 26.7002h53.2998v129.7
c-69.0996 8.5 -120 69.2002 -111 138l27 184.899c2.2998 15.7002 15.7998 27.4004 31.7002 27.4004h136.6c15.9004 0 29.4004 -11.7002 31.7002 -27.4004zM196.3 416h-136.6l-14 -96h164.6zM32.7002 231.1c-3.2998 -25.2998 4.39941 -50.3994 21.7998 -70.2998
c18.2998 -20.7998 45.0996 -32.7998 73.5 -32.7998s55.2002 12 73.4004 32.7998c17.5 19.9004 25.1992 45 21.7998 70.7002l-8.2002 56.5h-174z" />
    <glyph glyph-name="glass-cheers" unicode="&#xf79f;" horiz-adv-x="640" 
d="M605.4 11c13.7998 5.2002 29.0996 -1.7998 34.0996 -15.4004c1.09961 -2.7998 -0.299805 -5.89941 -3.09961 -6.89941l-139.9 -52.2002c-2.7998 -1.09961 -5.90039 0.299805 -6.90039 3.09961c-5.09961 13.8008 1.90039 29.2002 15.7002 34.3008l35 13l-45.5996 122.399
c-70.7998 -18.7002 -129.7 25.2998 -144.601 80.7002l-30.0996 112.2l-30.2998 -112.5c-14.7998 -55.1006 -73.5 -99.4004 -144.601 -80.7002l-45.5996 -122.4l35 -13c13.7998 -5.09961 20.7998 -20.5 15.7002 -34.2998
c-1.10059 -2.7002 -4.10059 -4.09961 -6.90039 -3.09961l-139.899 52.2002c-2.7002 1.09961 -4.10059 4.09961 -3.10059 6.89941c5.2002 13.7998 20.5 20.7998 34.2998 15.7002l35 -13l46 123.4c-57 32.1992 -79.5 103.5 -46.7998 160.1l87 150.5
c5.7998 10.2002 16.6006 16 27.7002 16c4.09961 0 8.2002 -0.700195 12.2002 -2.40039l120.6 -50c1.40039 -0.599609 6.10059 -0.599609 7.5 0l120.601 50c4 1.60059 8.09961 2.40039 12.1992 2.40039c11.1006 0 21.8008 -5.7998 27.7002 -16l86.9004 -150.5
c32.7002 -56.5996 10.2002 -127.9 -46.7998 -160.1l46 -123.4zM259 198.2l13.2998 49.2998l-150.2 62.2002l-25.5 -44.2002c-25.8994 -44.7998 -3.89941 -101.7 44.7002 -121.8c39.7998 -16.5 101.9 -4.2998 117.7 54.5zM280.6 278.7l23.4004 87.2998l-120.6 50
l-45.2002 -78.2998zM336 366l23.4004 -87.2998l142.399 59l-45.2002 78.2998zM381 198.2c15.4004 -57.2002 77 -71.4004 117.8 -54.5c48.6006 20.0996 70.6006 76.8994 44.7002 121.8l-25.5 44.2002l-150.2 -62.2002z" />
    <glyph glyph-name="glass-whiskey" unicode="&#xf7a0;" 
d="M480 416c19.5 0 34.4004 -17.2002 31.7002 -36.5l-55.6006 -356.5c-4.5 -31.5 -31.5996 -54.9004 -63.3994 -54.9004h-273c-31.9004 0 -58.9004 23.4004 -63.4004 54.9004l-56 356.5c-2.7002 19.2998 12.2002 36.5 31.7002 36.5h448zM424.4 27.5l20.5996 132.5h-377.8
l20.7998 -132.1c2.2998 -16.1006 15.9004 -27.9004 31.7002 -27.9004h273c15.7998 0 29.5 11.7998 31.7002 27.5zM450 192l30 192h-448l30.2002 -192h387.8z" />
    <glyph glyph-name="glass-whiskey-rocks" unicode="&#xf7a1;" 
d="M480 416c19.5 0 34.4004 -17.2002 31.7002 -36.5l-55.6006 -356.5c-4.5 -31.5 -31.5996 -54.9004 -63.3994 -54.9004h-273c-31.9004 0 -58.9004 23.4004 -63.4004 54.9004l-56 356.5c-2.7002 19.2998 12.2002 36.5 31.7002 36.5h448zM424.4 27.5l20.5996 132.5h-20.0996
c0 -12.2002 -4.60059 -24.5 -14 -33.9004l-57 -57c-9 -9.09961 -21.1006 -14.0996 -33.9004 -14.0996s-24.7998 5 -33.9004 14.0996l-10.7998 10.8008c-8.7998 -9.7002 -21.2998 -15.9004 -35.2998 -15.9004h-96c-26.5 0 -48 21.5 -48 48v48h-28.7998l20.7998 -132.1
c2.2998 -16.1006 15.9004 -27.9004 31.7002 -27.9004h273c15.7998 0 29.5 11.7998 31.7002 27.5zM251.7 148.7l57 -57c3.09961 -3.10059 7.2002 -4.7002 11.2998 -4.7002s8.2002 1.59961 11.2998 4.7002l57 57c6.2002 6.2002 6.2002 16.3994 0 22.5996l-57 57
c-3.09961 3.10059 -7.2002 4.7002 -11.2998 4.7002s-8.2002 -1.59961 -11.2998 -4.7002l-57 -57c-6.2002 -6.2002 -6.2002 -16.3994 0 -22.5996zM229.1 193.9l23.5 23.3994c-2.89941 3.90039 -7.39941 6.60059 -12.5996 6.60059h-96c-8.7998 0 -16 -7.2002 -16 -16v-96
c0 -8.80078 7.2002 -16 16 -16h96c5.2998 0 9.7002 2.69922 12.5996 6.59961l-23.5 23.5c-18.6992 18.7002 -18.6992 49.2002 0 67.9004zM450 192l30 192h-448l30.2002 -192h33.7998v16c0 26.5 21.5 48 48 48h96c14 0 26.5 -6.2002 35.2998 -15.9004l10.7998 10.8008
c9 9.09961 21.1006 14.0996 33.9004 14.0996s24.9004 -5 33.9004 -14.0996l57 -57c0.599609 -0.5 0.799805 -1.30078 1.2998 -1.90039h37.7998z" />
    <glyph glyph-name="globe-snow" unicode="&#xf7a3;" horiz-adv-x="448" 
d="M224 352c-8.7998 0 -16 7.2002 -16 16s7.2002 16 16 16s16 -7.2002 16 -16s-7.2002 -16 -16 -16zM112 272c0 -8.7998 -7.2002 -16 -16 -16s-16 7.2002 -16 16s7.2002 16 16 16s16 -7.2002 16 -16zM320 288c-8.7998 0 -16 7.2002 -16 16s7.2002 16 16 16
s16 -7.2002 16 -16s-7.2002 -16 -16 -16zM363.3 49l46.2998 -61.7998c15.8008 -21.1006 0.800781 -51.2002 -25.5996 -51.2002h-320c-26.4004 0 -41.4004 30.0996 -25.5996 51.2002l46.2998 61.7998c-51.5 41 -84.7002 104 -84.7002 175c0 123.7 100.3 224 224 224
s224 -100.3 224 -224c0 -71 -33.2002 -134 -84.7002 -175zM32 224c0 -66.7002 34.2998 -125.6 86.0996 -160h89.9004v32h-80c-12.2998 0 -23.5 7 -28.7998 18.2002c-5.40039 11 -3.90039 24.2002 3.7998 33.7998l19.5996 24.5c-1.19922 1.7002 -2.39941 3.5 -3.2998 5.40039
c-5.39941 11 -4 24.1992 3.60059 33.7998l76 96.2998c6 7.7002 15.2998 12.2002 25.0996 12.2002s19 -4.5 25.0996 -12.2002l75.8008 -96.2998c7.59961 -9.60059 9 -22.7998 3.69922 -33.7998c-0.899414 -1.90039 -2 -3.7002 -3.2998 -5.40039l19.7002 -24.5996
c7.59961 -9.60059 9.09961 -22.7002 3.7998 -33.8008c-5.2998 -11.0996 -16.5 -18.0996 -28.7998 -18.0996h-80v-32h89.9004c51.7998 34.4004 86.0996 93.2998 86.0996 160c0 105.9 -86.0996 192 -192 192s-192 -86.0996 -192 -192zM148 191.9l31.0996 0.0996094
l-51.0996 -64h80v88c0 4.40039 3.59961 8 8 8h16c4.40039 0 8 -3.59961 8 -8v-88h80l-51.0996 64h31l-75.9004 96.2002zM64 -32h320l-48 64h-224z" />
    <glyph glyph-name="grip-lines" unicode="&#xf7a4;" horiz-adv-x="448" 
d="M440 256c4.40039 0 8 -3.59961 8 -8v-16c0 -4.40039 -3.59961 -8 -8 -8h-432c-4.40039 0 -8 3.59961 -8 8v16c0 4.40039 3.59961 8 8 8h432zM440 160c4.40039 0 8 -3.59961 8 -8v-16c0 -4.40039 -3.59961 -8 -8 -8h-432c-4.40039 0 -8 3.59961 -8 8v16
c0 4.40039 3.59961 8 8 8h432z" />
    <glyph glyph-name="hat-santa" unicode="&#xf7a7;" horiz-adv-x="640" 
d="M627.2 258.5c8.09961 -9.40039 12.7002 -21.5 12.7002 -34.5996c0 -13.1006 -4.7002 -25.2002 -12.8008 -34.5c-0.899414 -12.3008 -6.09961 -24.2002 -15.2998 -33.4004c-9.09961 -9.09961 -20.8994 -14.5 -33.5996 -15.5
c-9.2998 -8 -21.2998 -12.7002 -34.2998 -12.7002s-25 4.7002 -34.3008 12.7002c-12.6992 1 -24.5 6.40039 -33.5996 15.5c-9.2002 9.2002 -14.4004 21.0996 -15.2998 33.4004c-8.10059 9.39941 -12.7998 21.3994 -12.7998 34.5c0 2.09961 0.899414 4 1.09961 6
l-47.0996 18.8994c-1 0.400391 -2 0.600586 -3 0.600586c-5.40039 0 -9.7002 -5.7002 -7.30078 -11.2002l61 -142.2h11.4004c26.5 0 48 -21.5 48 -48v-32c0 -26.5 -21.5 -48 -48 -48h-416c-26.5 0 -48 21.5 -48 48v32c0 26.5 21.5 48 48 48h10.7002l89.7002 215.5
c26.3994 63.2998 88.1992 104.5 156.8 104.5c74.7002 0 114.5 -33.5996 192.1 -112c4 1.40039 8 2.90039 12.2998 3.2002c9.30078 8.09961 21.5 12.7998 34.5 12.7998s25.2002 -4.7002 34.5 -12.7998c12.6006 -0.900391 24.3008 -6.2998 33.3008 -15.2998
c9.19922 -9.2002 14.3994 -21.1006 15.2998 -33.4004zM480 48c0 8.7998 -7.2002 16 -16 16h-416c-8.7998 0 -16 -7.2002 -16 -16v-32c0 -8.7998 7.2002 -16 16 -16h416c8.7998 0 16 7.2002 16 16v32zM398.9 281.4c5.09961 0 10.0996 -0.900391 14.7998 -2.90039
l47.2998 -18.9004c0.900391 9.10059 4.7002 17.5 10.0996 25.1006c-72 72.7002 -104.6 99.2998 -165.899 99.2998c-55.7998 0 -105.7 -33.2998 -127.2 -84.7998l-84.7002 -203.2h324.5l-55.5996 129.7c-5.40039 12.3994 -4.10059 26.5 3.2998 37.7002
c7.5 11.2998 19.9004 18 33.4004 18zM592.6 203.9c8.80078 2.59961 15.4004 10.5 15.4004 20.0996s-6.59961 17.5 -15.4004 20.0996c4.40039 8.10059 3.40039 18.3008 -3.39941 25.1006c-4 4 -9.2998 6 -14.6006 6c-3.59961 0 -7.19922 -0.900391 -10.5 -2.7002
c-2.59961 8.7998 -10.5 15.4004 -20.0996 15.4004s-17.5 -6.60059 -20.0996 -15.4004c-3.30078 1.7998 -6.90039 2.7002 -10.5 2.7002c-5.30078 0 -10.5 -1.90039 -14.6006 -6c-6.89941 -6.7998 -7.7998 -17 -3.39941 -25.1006
c-8.80078 -2.59961 -15.4004 -10.5 -15.4004 -20.0996s6.59961 -17.5 15.4004 -20.0996c-4.30078 -8.10059 -3.40039 -18.3008 3.39941 -25.1006c4.2002 -4.09961 9.60059 -6.2002 15.1006 -6.2002c3.5 0 6.7998 1.2002 10 2.90039
c2.59961 -8.7998 10.5 -15.4004 20.0996 -15.4004s17.5 6.60059 20.0996 15.4004c3.10059 -1.7002 6.5 -2.90039 10 -2.90039c5.5 0 10.9004 2 15.1006 6.2002c6.89941 6.7998 7.7998 17 3.39941 25.1006z" />
    <glyph glyph-name="hat-winter" unicode="&#xf7a8;" 
d="M489.9 62c12.7998 -4.2002 22.0996 -15.7998 22.0996 -30v-64c0 -17.7002 -14.2998 -32 -32 -32h-448c-17.7002 0 -32 14.2998 -32 32v64c0 14.2002 9.2998 25.7998 22.0996 30c11.8008 73.4004 47.4004 193.5 154 257.3v0.700195
c-10.0996 7.90039 -16.1992 19.7998 -16.1992 33.0996c0 13.3008 6.19922 25.3008 16.1992 33.1006c-1.5 12.5996 2.60059 25.3994 12 34.7998c9.40039 9.2998 22.2002 13.2998 34.8008 11.9004c15.6992 20.0996 50.5 20.0996 66.0996 0.0996094
c12.5996 1.5 25.4004 -2.59961 34.7998 -11.9004c9.40039 -9.2998 13.6006 -22.0996 12 -34.7998c10.1006 -7.89941 16.2002 -19.7998 16.2002 -33.0996s-6.2002 -25.2998 -16.2002 -33.1006v-0.699219c106.7 -63.9004 142.3 -184 154.101 -257.4zM456.8 64
c-2.5 14.4004 -6 30.0996 -10.7998 47.0996l-62 31l-64 -32l-64 32l-64 -32l-64 32l-62 -31c-4.7998 -17 -8.2002 -32.6992 -10.7998 -47.0996h401.6zM199.8 362.9c-3.89941 -1.10059 -7.7998 -4.60059 -7.7998 -9.80078c0 -5.19922 3.90039 -8.69922 7.7998 -9.7998
l19 -5.59961l-9.39941 -17.4004c-1.80078 -3.2998 -2.5 -8.5 1.39941 -12.3994c2.90039 -2.90039 5.60059 -5.30078 12.5 -1.5l17.4004 9.5l5.59961 -19c1.10059 -3.90039 4.60059 -7.80078 9.7998 -7.80078c5.2002 0 8.60059 3.90039 9.80078 7.80078l5.59961 19
l17.4004 -9.5c6.89941 -3.7002 9.59961 -1.40039 12.5 1.5c3.89941 3.89941 3.19922 9.09961 1.39941 12.3994l-9.39941 17.4004l19 5.59961c3.89941 1.10059 7.7998 4.60059 7.7998 9.7998c0 5.2002 -3.90039 8.7002 -7.7998 9.80078l-19 5.59961l9.39941 17.4004
c1.7998 3.2998 2.5 8.5 -1.39941 12.3994c-4 4 -9.2002 3.2998 -12.5 1.5l-17.4004 -9.39941l-5.59961 19c-1.10059 3.89941 -4.60059 7.7998 -9.80078 7.7998c-5.19922 0 -8.59961 -3.90039 -9.7998 -7.7998l-5.59961 -19l-17.4004 9.39941
c-3.2998 1.7002 -8.59961 2.5 -12.5 -1.5c-3.89941 -3.89941 -3.2002 -9.09961 -1.39941 -12.3994l9.39941 -17.4004zM186.5 287.3c-52.5 -33.7998 -85.0996 -83.5996 -105.2 -132.8l46.7002 23.4004l64 -32l64 32l64 -32l64 32l46.9004 -23.4004
c-20.1006 49.2002 -52.8008 99 -105.2 132.8c-0.600586 -0.700195 -1 -1.39941 -1.7002 -2.09961c-9.2002 -9.2002 -22 -13.7998 -35 -12.2002c-7.7998 -9.90039 -19.7002 -15.9004 -32.9004 -15.9004c-13.1992 0 -25.0996 6 -32.8994 15.9004
c-13 -1.5 -25.7998 3 -35 12.2002c-0.700195 0.599609 -1.10059 1.39941 -1.7002 2.09961zM480 -32v64h-448v-64h448z" />
    <glyph glyph-name="holly-berry" unicode="&#xf7aa;" horiz-adv-x="448" 
d="M443.9 104.4c4.89941 -8.60059 5.5 -19.1006 1.39941 -28.1006c-14.5 -31.7002 -22.2002 -68.0996 -22.3994 -105.2c-0.100586 -12.6992 -6.60059 -24.0996 -17.5 -30.3994c-5.40039 -3.10059 -11.4004 -4.7002 -17.4004 -4.7002s-12.0996 1.59961 -17.5996 4.7998
c-32.1006 18.4004 -67.4004 29.9004 -101.9 33.1006c-9.7998 1 -18.5996 6.59961 -23.5996 15.1992c-5 8.7002 -5.60059 19.2002 -1.5 28.3008c5.7998 13.1992 10.5996 27.5 14.1992 42.5996c1.7002 7.59961 -2.59961 15.2002 -10 17.4004
c-7.89941 2.39941 -15.7998 4.2998 -23.5996 5.7998c-7.7998 -1.5 -15.7002 -3.40039 -23.5996 -5.7998c-7.40039 -2.2002 -11.8008 -9.90039 -10 -17.4004c3.5 -15.0996 8.2998 -29.4004 14.1992 -42.5996c4.10059 -9.10059 3.5 -19.6006 -1.5 -28.3008
c-5 -8.59961 -13.7998 -14.2998 -23.5 -15.1992c-34.5 -3.2002 -69.6992 -14.7002 -101.899 -33.1006c-5.60059 -3.2002 -11.7002 -4.7998 -17.7002 -4.7998s-11.9004 1.59961 -17.4004 4.7002c-10.8994 6.2002 -17.3994 17.5996 -17.5 30.3994
c-0.199219 37.1006 -7.89941 73.5 -22.3994 105.2c-4.10059 8.90039 -3.5 19.4004 1.39941 28c5 8.60059 13.9004 14.4004 23.7002 15.4004c14.2002 1.5 29 4.5 43.7998 8.89941c7.40039 2.2002 11.8008 9.90039 10 17.4004
c-3.59961 15.0996 -8.39941 29.4004 -14.2998 42.5996c-4 9.10059 -3.5 19.6006 1.60059 28.3008c4.89941 8.5 13.7998 14.1992 23.5 15.0996c14.5996 1.40039 29.1992 4.59961 43.6992 8.7998c-19.0996 11.1006 -32.0996 31.5 -32.0996 55.2002
c0 34.2998 27 62 60.7998 63.7002c-3 7.5 -4.7998 15.7002 -4.7998 24.2998c0 35.4004 28.7002 64 64 64s64 -28.7002 64 -64c0 -8.59961 -1.7002 -16.7998 -4.7998 -24.2998c33.7998 -1.7002 60.7998 -29.4004 60.7998 -63.7002c0 -23.5996 -13 -44.0996 -32.0996 -55.0996
c14.5 -4.2002 29.0996 -7.40039 43.6992 -8.80078c9.7002 -0.899414 18.5 -6.5 23.5 -15.0996c5.10059 -8.59961 5.7002 -19.2002 1.60059 -28.2998c-5.90039 -13.2002 -10.7002 -27.5 -14.2998 -42.6006c-1.80078 -7.59961 2.59961 -15.1992 10 -17.3994
c14.7998 -4.40039 29.5 -7.40039 43.7998 -8.90039c9.89941 -1 18.7002 -6.7002 23.7002 -15.3994zM280 328c-17.5996 0 -32 -14.4004 -32 -32s14.4004 -32 32 -32s32 14.4004 32 32s-14.4004 32 -32 32zM136 296c0 -17.5996 14.4004 -32 32 -32s32 14.4004 32 32
s-14.4004 32 -32 32s-32 -14.4004 -32 -32zM191.2 107.9c16.2002 4.89941 32.3994 8.19922 48.2998 9.89941c-16.5996 36.7998 -25.0996 78.9004 -24.5996 121.8c-37.7002 -21.7998 -78.9004 -35.5 -119.5 -39.2998c7.7998 -13.5 13.2998 -29.7998 17.2998 -46.7998
c5.7002 -24 -8.2998 -48.2998 -31.9004 -55.4004c-16.7998 -5 -33.5 -8.39941 -49.7998 -10.0996c17.5 -34.7002 26 -74.5 26.0996 -116.8c0 -1.40039 0.5 -2.2998 1.5 -2.90039c39.7002 21.1006 78.4004 33.7002 118 37.4004
c-7.7998 13.5 -13.2998 29.7998 -17.2998 46.7998c-5.7002 24 8.2998 48.2998 31.9004 55.4004zM224 352c17.5996 0 32 14.4004 32 32s-14.4004 32 -32 32s-32 -14.4004 -32 -32s14.4004 -32 32 -32zM390.9 -28.7002c0.0996094 42.2002 8.59961 82 25.2998 118.4
c-15.4004 0 -32.1006 3.39941 -48.9004 8.39941c-23.5996 7.10059 -37.5996 31.4004 -31.8994 55.4004c4 17.0996 9.5 33.2998 16.1992 48.2998c-34.7998 2.10059 -70.7998 13.4004 -104.399 31.1006c0.5 -36.6006 7.89941 -72.1006 22.0996 -103.2
c3.90039 -8.60059 3.40039 -18.7002 -1.09961 -27.1006c16.3994 -10.3994 25.2002 -30.1992 20.5 -50c-4 -17.0996 -9.5 -33.2998 -16.2002 -48.2998c38.5 -2.2998 77.2002 -14.7998 113.8 -35.7998c4.10059 0.5 4.60059 1.5 4.60059 2.7998z" />
    <glyph glyph-name="ice-skate" unicode="&#xf7ac;" horiz-adv-x="576" 
d="M568 32c4.40039 0 8 -3.59961 8 -8v-8c0 -44.2002 -35.7998 -80 -80 -80h-488c-4.40039 0 -8 3.59961 -8 8v16c0 4.40039 3.59961 8 8 8h88v64c-35.2998 0 -64 28.7002 -64 64v234.3c0 13.1006 8 24.9004 20.0996 29.7002l128.4 51.4004
c7.59961 3 15.7002 4.59961 23.7998 4.59961h83.7002v24c0 4.40039 3.59961 8 8 8h16c4.40039 0 8 -3.59961 8 -8v-184l119.3 -29.9004c42.7002 -10.5996 72.7002 -49 72.7002 -93.0996v-37c0 -35.2998 -28.7002 -64 -64 -64h-32v-64h80c26.5 0 48 21.5 48 48v8
c0 4.40039 3.59961 8 8 8h16zM64 96c0 -17.5996 14.4004 -32 32 -32h352c17.5996 0 32 14.4004 32 32v37c0 29.5 -19.9004 55 -48.4004 62.0996l-115.5 28.9004h-84.0996c-4.40039 0 -8 3.59961 -8 8v16c0 4.40039 3.59961 8 8 8h56v32h-56c-4.40039 0 -8 3.59961 -8 8v16
c0 4.40039 3.59961 8 8 8h56v64h-83.7002c-4.09961 0 -8.09961 -0.799805 -11.8994 -2.2998l-128.4 -51.4004v-234.3zM384 -32v64h-256v-64h256z" />
    <glyph glyph-name="icicles" unicode="&#xf7ad;" 
d="M466 448c28.4004 0 50.5996 -25.7998 45.2002 -54.5v-0.200195l-89.5 -444.5c-1.5 -7.39941 -8.10059 -12.7998 -15.7002 -12.7998h-0.200195c-7.7002 0 -14.2002 5.5 -15.5996 13.0996l-56.5 310.301l-32.2998 -119.301
c-1.7002 -7.19922 -8.10059 -12.1992 -15.5 -12.1992h-0.100586c-7.5 0.0996094 -13.8994 5.2998 -15.5 12.5l-22.2998 86l-36.4004 -181.5c-1.5 -7.60059 -8 -13 -15.6992 -13c-7.60059 0 -14.2002 5.39941 -15.7002 12.8994l-35.2998 172.101l-23.5 -77
c-1.80078 -6.80078 -7.90039 -11.7002 -14.9004 -11.9004c-7.7998 -0.5 -13.4004 4.09961 -15.7002 10.7998l-88.7002 249.4c-9.39941 31.2998 14.2002 59.7998 43.9004 59.7998h420zM406.8 37l73 362.5c1.10059 6 -2.7002 16.5 -13.7998 16.5h-420
c-9.59961 0 -16 -9.2002 -13.4004 -18l71.5 -210.7l27.7002 104.7c4 14.7998 27.7002 16.5996 31.2002 -1l32.9004 -166l35.2998 182c3.39941 17.2998 27.5996 16.7998 31.2998 0.5l24.0996 -106l34 138.3c4.10059 16.6006 28.2002 16 31.3008 -1z" />
    <glyph glyph-name="igloo" unicode="&#xf7ae;" horiz-adv-x="576" 
d="M288 416c159.1 0 288 -128.9 288 -288v-128c0 -17.7002 -14.2998 -32 -32 -32h-512c-17.7002 0 -32 14.2998 -32 32v128c0 159.1 128.9 288 288 288zM487.5 288c-34 42.4004 -81.2998 73.5996 -135.5 87.5996v-87.5996h135.5zM448 128v128h-320v-128h49.7998
c22.2002 38.0996 63 64 110.2 64s88 -25.9004 110.2 -64h49.7998zM288 384c-80.5996 0 -152.6 -37.5996 -199.5 -96h231.5v93.7998c-10.5 1.2998 -21.0996 2.2002 -32 2.2002zM66.5996 256c-21.8994 -37.7002 -34.5996 -81.2998 -34.5996 -128h64v128h-29.4004zM32 0h128v64
c0 11.0996 1.7998 21.7002 4.5 32h-132.5v-96zM192 0h192v64c0 53 -43 96 -96 96s-96 -43 -96 -96v-64zM544 0v96h-132.5c2.59961 -10.2998 4.5 -20.9004 4.5 -32v-64h128zM480 128h64c0 46.7002 -12.7002 90.2998 -34.5996 128h-29.4004v-128z" />
    <glyph glyph-name="mistletoe" unicode="&#xf7b4;" horiz-adv-x="576" 
d="M542.1 250.6c40 -40 45.4004 -99.3994 12.1006 -132.8c-14.7002 -14.5996 -34.5 -21.7998 -55.4004 -21.7998c-26.5996 0 -55 11.5 -77.3994 33.9004c-28.9004 29 -41.2002 104.399 -45.8008 143.899l-71.5996 71.6006v-170.5c27.2998 -30.4004 80 -94.5 80 -136.4
c0 -56.5996 -43 -102.4 -96 -102.4s-96 45.8008 -96 102.4c0 41.9004 52.7002 106 80 136.4v170.5l-71.5996 -71.6006c-0.700195 -6 -1.5 -12.5996 -2.60059 -19.8994c3.2998 1.09961 6.60059 2.09961 10.2002 2.09961c17.7002 0 32 -14.2998 32 -32s-14.2998 -32 -32 -32
c-8.09961 0 -15.2002 3.2002 -20.7998 8.09961c-7.2998 -28.1992 -17.7002 -55.2998 -32.6006 -70.1992c-22.3994 -22.4004 -50.7998 -33.9004 -77.3994 -33.9004c-20.9004 0 -40.7002 7.2002 -55.4004 21.9004c-33.2998 33.2998 -27.8994 92.6992 12.1006 132.699
c29 28.9004 104.399 41.2002 143.899 45.8008l94.2002 94.1992v49.4004c0 4.40039 3.59961 8 8 8h16c4.40039 0 8 -3.59961 8 -8v-49.4004l94.2002 -94.1992c39.5 -4.5 114.899 -16.8008 143.899 -45.8008zM132 152.5c16.5996 16.5996 28.7998 66.2998 34.9004 110.5
c-44.2002 -6.2998 -93.9004 -18.5 -110.4 -35c-26.9004 -27 -32.5 -67.0996 -12 -87.5c10.2998 -10.2998 23.5 -12.5 32.7002 -12.5c19.2002 0 39.2002 8.90039 54.7998 24.5zM352 38.4004c0 23.5996 -32.9004 70.3994 -64 106.399c-31.0996 -36 -64 -82.8994 -64 -106.399
c0 -38.8008 28.7002 -70.4004 64 -70.4004s64 31.5996 64 70.4004zM531.5 140.5c20.5 20.4004 14.9004 60.5 -12.0996 87.4004c-16.6006 16.5996 -66.2002 28.7998 -110.4 35c6.2998 -44.2002 18.5 -93.9004 35 -110.4c15.5996 -15.5996 35.5996 -24.5 54.7998 -24.5
c9.2002 0 22.4004 2.2002 32.7002 12.5zM384 384c-17.7002 0 -32 14.2998 -32 32s14.2998 32 32 32s32 -14.2998 32 -32s-14.2998 -32 -32 -32z" />
    <glyph glyph-name="mitten" unicode="&#xf7b5;" horiz-adv-x="448" 
d="M420.9 250.4c31.8994 -26.9004 36.2998 -74.9004 9.69922 -107.101l-66.3994 -80.3994c10.5 -2.5 19.8994 -11.5 19.8994 -22.9004v-80c0 -13.2998 -12.0996 -24 -25.1992 -24h-303.101c-13.0996 0 -23.7998 10.7002 -23.7998 24v80
c0 10.5996 8.59961 19.2998 18 22.4004c-0.5 1.89941 -1.2002 3.69922 -1.59961 5.59961l-44.6006 195c-18.5 81.0996 31.7998 162.4 112.2 181.1c11.0996 2.60059 22.5 3.90039 33.7998 3.90039c70 0 129.9 -48.0996 145.601 -117.1l20.3994 -89
c14.4004 16.5996 35 26.0996 56.9004 26.0996c17.5996 0 34.7002 -6.2002 48.2002 -17.5996zM352 -32v64h-288v-64h288zM406.2 163.8c15.3994 18.7002 12.8994 46.5 -5.7002 62.1006c-7.90039 6.59961 -17.7002 10.1992 -27.9004 10.1992
c-13 0 -25.1992 -5.69922 -33.5 -15.7998l-19.3994 -23.5l-20.5 -24.7998l-7.2002 31.4004l-27.5 120.399c-12.4004 54.4004 -59.5996 92.2998 -114.8 92.2998c-8.90039 0 -17.7998 -1.09961 -26.6006 -3.09961c-63.3994 -14.7998 -103 -78.7998 -88.3994 -142.7
l44.5996 -195c0.900391 -3.89941 2.40039 -7.59961 3.60059 -11.2998h240.8z" />
    <glyph glyph-name="mug-hot" unicode="&#xf7b6;" 
d="M416 255.9c52.9004 0 96 -42.9004 96 -95.9004s-43.0996 -96 -96 -96h-32v-32c0 -53 -43 -96 -96 -96h-192c-53 0 -96 43 -96 96v191.9c0 17.6992 14.2998 32 32 32h384zM352 32v191.9h-320v-191.9c0 -35.2998 28.7002 -64 64 -64h192c35.2998 0 64 28.7002 64 64z
M416 96c35.2998 0 64 28.7002 64 64s-28.7002 64 -64 64h-32v-128h32zM191.3 369.5c-26 26.0996 -30.2998 54.7998 -31.2002 69.7002c-0.299805 4.7002 3.2002 8.7002 7.90039 8.7002l16 0.0996094c4.09961 0 7.7002 -3 8 -7.09961
c0.799805 -10.7002 3.5 -30.2002 21.9004 -48.9004c22.2998 -22.2002 39.5 -53.4004 41.5996 -95.5c0.200195 -4.5 -3.5 -8.2002 -8 -8.2002h-16c-4.2998 0 -7.7998 3.5 -8 7.7998c-1.7998 32.7002 -14.9004 56.2002 -32.2002 73.4004zM95.7002 369.5
c-26 26.0996 -30.2002 54.7998 -31.2002 69.7002c-0.299805 4.7002 3.2002 8.7002 7.90039 8.7002l16 0.0996094c4.19922 0 7.7998 -3 8.09961 -7.09961c0.799805 -10.7002 3.5 -30.2002 21.7998 -48.9004c22.2998 -22.2002 39.5 -53.4004 41.6006 -95.5
c0.199219 -4.5 -3.5 -8.2002 -8 -8.2002h-16c-4.30078 0 -7.80078 3.5 -8 7.7998c-1.80078 32.7002 -14.9004 56.2002 -32.2002 73.4004z" />
    <glyph glyph-name="ornament" unicode="&#xf7b8;" horiz-adv-x="384" 
d="M288 294.1c57.2998 -33.1992 96 -95.0996 96 -166.1c0 -106 -86 -192 -192 -192s-192 86 -192 192c0 71 38.7002 132.9 96 166.1v57.9004c0 17.7002 14.2998 32 32 32h18.9004c-1.7002 5 -2.90039 10.4004 -2.90039 16c0 26.5 21.5 48 48 48s48 -21.5 48 -48
c0 -5.59961 -1.09961 -11 -2.90039 -16h18.9004c17.7002 0 32 -14.2998 32 -32v-57.9004zM176 400c0 -8.7998 7.2002 -16 16 -16s16 7.2002 16 16s-7.2002 16 -16 16s-16 -7.2002 -16 -16zM128 352v-43.2002c20 7.10059 41.5 11.2002 64 11.2002s44 -4.09961 64 -11.2002
v43.2002h-128zM192 288c-52.0996 0 -97.9004 -25.4004 -127.2 -64h254.4c-29.2998 38.5996 -75.1006 64 -127.2 64zM192 -32c52.0996 0 97.9004 25.4004 127.2 64h-254.4c29.2998 -38.5996 75.1006 -64 127.2 -64zM338.4 64c8.69922 19.5996 13.6992 41.2002 13.6992 64
s-5 44.4004 -13.5996 64h-292.9c-8.69922 -19.5996 -13.5996 -41.2002 -13.5996 -64s4.90039 -44.4004 13.5996 -64h292.801z" />
    <glyph glyph-name="restroom" unicode="&#xf7bd;" horiz-adv-x="640" 
d="M328 448c4.40039 0 8 -3.59961 8 -8v-496c0 -4.40039 -3.59961 -8 -8 -8h-16c-4.40039 0 -8 3.59961 -8 8v496c0 4.40039 3.59961 8 8 8h16zM128 288c-44.2002 0 -80 35.7998 -80 80s35.7998 80 80 80s80 -35.7998 80 -80s-35.7998 -80 -80 -80zM128 416
c-26.5 0 -48 -21.5 -48 -48s21.5 -48 48 -48s48 21.5 48 48s-21.5 48 -48 48zM160 272c44.2002 0 80 -35.7998 80 -80v-101.3c0 -14.7998 -12 -26.7002 -26.7002 -26.7002h-13.2998v-96c0 -17.7002 -14.2998 -32 -32 -32h-80c-17.7002 0 -32 14.2998 -32 32v96h-13.2998
c-14.7998 0 -26.7002 12 -26.7002 26.7002v101.3c0 44.2002 35.7998 80 80 80h64zM208 96v96c0 26.5 -21.5 48 -48 48h-64c-26.5 0 -48 -21.5 -48 -48v-96h40v-128h80v128h40zM512 288c-44.2002 0 -80 35.7998 -80 80s35.7998 80 80 80s80 -35.7998 80 -80
s-35.7998 -80 -80 -80zM512 416c-26.5 0 -48 -21.5 -48 -48s21.5 -48 48 -48s48 21.5 48 48s-21.5 48 -48 48zM638.1 89c3.5 -9.40039 2.10059 -20 -3.69922 -28.2998c-5.80078 -8.2998 -15.2002 -13.2002 -25.3008 -13.2002h-25.1992v-79.5996
c0 -17.6006 -14.3008 -31.9004 -31.9004 -31.9004h-80.0996c-17.6006 0 -31.9004 14.2998 -31.9004 31.9004v79.5996h-25.2002c-10.0996 0 -19.5 4.90039 -25.2998 13.2002s-7.09961 18.8994 -3.59961 28.2998l44.8994 121.4c10.1006 36.2998 43.5 61.5996 81.2002 61.5996
s71.0996 -25.2998 81.2002 -61.5996zM552 79.5h56.2002l-45.2998 121c-6.7002 23.7998 -27.4004 39.5 -50.8008 39.5c-23.3994 0 -44.0996 -15.7002 -50.7998 -39.5l-45.2998 -121h56l-0.0996094 -111.5h80.1992z" />
    <glyph glyph-name="rv" unicode="&#xf7be;" horiz-adv-x="640" 
d="M304 320c8.7998 0 16 -7.2002 16 -16v-96c0 -8.7998 -7.2002 -16 -16 -16h-192c-8.7998 0 -16 7.2002 -16 16v96c0 8.7998 7.2002 16 16 16h192zM288 224v64h-160v-64h160zM576.1 256l45.2002 -45.2002c12 -12 18.7002 -28.2002 18.7002 -45.2002v-101.6
c0 -17.5996 -14.4004 -32 -32 -32h-33.5996c1 -5.2002 1.59961 -10.5 1.59961 -16c0 -44.2002 -35.7998 -80 -80 -80s-80 35.7998 -80 80c0 5.5 0.5 10.7998 1.59961 16h-163.199c1 -5.2002 1.59961 -10.5 1.59961 -16c0 -44.2002 -35.7998 -80 -80 -80s-80 35.7998 -80 80
c0 6.09961 0.799805 12 2.09961 17.7002c-3.59961 1.2998 -6.89941 3.09961 -9.69922 5.89941l-69.7002 69.7002c-12 12 -18.7002 28.2002 -18.7002 45.2002v197.5c0 35.2998 28.7002 64 64 64h160v16c0 8.7998 7.2002 16 16 16h128c8.7998 0 16 -7.2002 16 -16v-16h136
c66.2998 0 120 -53.7002 120 -120c0 -22.0996 -17.9004 -40 -40 -40h-23.9004zM594.8 192l-54.5 54.5996c-6.09961 6 -14.2002 9.40039 -22.7998 9.40039h-101.5v-64h178.8zM176 -32c26.5 0 48 21.5 48 48s-21.5 48 -48 48s-48 -21.5 -48 -48s21.5 -48 48 -48zM384 64v224
h216c4.40039 0 8 3.59961 8 8c0 48.5 -39.5 88 -88 88h-456c-17.7002 0 -32 -14.2998 -32 -32v-197.5c0 -8.5 3.40039 -16.5996 9.40039 -22.5996l67.8994 -67.9004h3.10059c14.5996 19.2998 37.5996 32 63.5996 32s49 -12.7002 63.5996 -32h144.4zM496 -32
c26.5 0 48 21.5 48 48s-21.5 48 -48 48s-48 -21.5 -48 -48s21.5 -48 48 -48zM608 64v96h-192v-96h16.4004c14.5996 19.2998 37.5996 32 63.5996 32s49 -12.7002 63.5996 -32h48.4004z" />
    <glyph glyph-name="scarf" unicode="&#xf7c1;" 
d="M509.7 52.2998c3.09961 -3.2002 3.09961 -8.2002 -0.200195 -11.2998l-11.2998 -11.2998c-3.10059 -3.10059 -8.2002 -3.10059 -11.2998 0l-68.8008 68.5996l-22.5996 -22.5996l68.7998 -68.6006c3.10059 -3.09961 3.10059 -8.19922 0 -11.2998l-11.2998 -11.2998
c-3.09961 -3.09961 -8.2002 -3.09961 -11.2998 0l-68.7998 68.5996l-22.5 -22.5l68.6992 -69.6992c3.10059 -3.10059 3.10059 -8.2002 0 -11.3008l-11.2998 -11.2998c-3.09961 -3.09961 -8.2002 -3.09961 -11.2998 0l-140.5 143.7l-140.7 -143.7
c-3.09961 -3.09961 -8.2002 -3.09961 -11.2998 0l-11.2998 11.2998c-3.10059 3.10059 -3.10059 8.2002 0 11.3008l68.7002 69.6992l-22.5 22.5l-68.8008 -68.5996c-3.09961 -3.09961 -8.19922 -3.09961 -11.2998 0l-11.2998 11.2998
c-3.09961 3.10059 -3.09961 8.2002 0 11.2998l68.7998 68.6006l-22.5996 22.5996l-68.7998 -68.5996c-3.10059 -3.10059 -8.2002 -3.10059 -11.3008 0l-11.2998 11.2998c-3.09961 3.09961 -3.09961 8.2002 0 11.2998l68.7998 68.4004l74.3008 74.2002l-24.1006 24.6992
c-48.5996 53.7002 -13 113.301 -11.5 115.801l43.6006 73.0996c4.2998 7.2002 9.89941 13.2998 16.7998 18c21.5996 14.5996 53.5 21.5 85.2002 21.5h1.19922c31.7002 0 63.5 -6.90039 85.1006 -21.4004c6.89941 -4.69922 12.5 -10.7998 16.7998 -18l43.5996 -73.0996
c1.5 -2.5 37.1006 -62.0996 -11.5 -115.8l-24.0996 -24.7002l74.4004 -74.0996zM184 53.4004l49.9004 51.1992l-66 67.5l-51.4004 -51.2998zM328 53.4004l67.5996 67.5l-203.899 203.699c-8.2998 8.2002 -11.4004 20.2002 -8.2002 31.4004s12.2002 19.7998 23.5 22.4004
c18 4.19922 34.2998 5.19922 49.0996 5.19922c14.9004 0.100586 31.2002 -1 49.1006 -5.19922c11.2998 -2.7002 20.2998 -11.2002 23.5 -22.4004c3.09961 -11.2002 0 -23.2002 -8.2002 -31.4004l-41.7998 -41.6992l65.2998 -65.2002l23 23.5996
c31.7998 35.2002 10.2998 73.6006 7.7002 77.9004l-43.6006 73c-11.0996 18.3994 -52.3994 23.7998 -74.5 23.7998h-1.19922c-22.1006 0 -63.4004 -5.40039 -74.4004 -23.9004l-43.5996 -73c-2.7002 -4.2998 -24.2002 -42.6992 7.69922 -77.8994zM214.2 347.1
l41.7998 -41.6992l41.7998 41.6992c-11.3994 2.7002 -25.7998 4.60059 -41.7998 4.60059c-16 -0.100586 -30.4004 -1.90039 -41.7998 -4.60059z" />
    <glyph glyph-name="sd-card" unicode="&#xf7c2;" horiz-adv-x="384" 
d="M320 448c35.2998 0 64 -28.7002 64 -64v-384c0 -35.2998 -28.7002 -64 -64 -64h-256c-35.2998 0 -64 28.7002 -64 64v320l128 128h192zM352 0v384c0 17.5996 -14.4004 32 -32 32h-178.7l-109.3 -109.3v-306.7c0 -17.5996 14.4004 -32 32 -32h256
c17.5996 0 32 14.4004 32 32zM288 288v96h32v-96h-32zM224 288v96h32v-96h-32zM160 288v96h32v-96h-32z" />
    <glyph glyph-name="shovel-snow" unicode="&#xf7c3;" 
d="M180.7 203.3c6.2002 6.2998 16.3994 6.2998 22.5996 0c6.2002 -6.2002 6.2002 -16.3994 0 -22.5996l-80 -80c-3.09961 -3.10059 -7.2002 -4.7002 -11.2998 -4.7002s-8.2002 1.59961 -11.2998 4.7002c-6.2002 6.2002 -6.2002 16.3994 0 22.5996zM164.7 36.7002
c-6.2998 6.2002 -6.2998 16.3994 0 22.5996l80 80c6.2002 6.2998 16.3994 6.2998 22.5996 0c6.2002 -6.2002 6.2002 -16.3994 0 -22.5996l-80 -80c-3.09961 -3.10059 -7.2002 -4.7002 -11.2998 -4.7002s-8.2002 1.59961 -11.2998 4.7002zM502.6 382.1
c12.5 -12.5 12.5 -32.7998 0 -45.1992l-17 -17c-14 -14.1006 -32.5 -21.1006 -50.8994 -21.1006c-13.2998 0 -26.5 3.7998 -38.2002 11.1006l-106.3 -106.301l47.2002 -47.1992c17.7998 -17.7002 19.5996 -45.9004 4.19922 -65.8008l-104.5 -135.199
c-9.89941 -12.8008 -24.6992 -19.4004 -39.5 -19.4004c-12.6992 0 -25.5 4.7998 -35.2998 14.5996l-147.7 147.7c-21.2998 21.2998 -19 56.4004 4.80078 74.7998l135.199 104.5c9 7 19.8008 10.4004 30.5 10.4004c12.8008 0 25.6006 -4.90039 35.3008 -14.5996
l47.1992 -47.2002l106.2 106.3c-17.3994 27.7998 -14.2002 64.9004 10 89.0996l17 17c6.2002 6.30078 14.4004 9.40039 22.6006 9.40039c8.19922 0 16.3994 -3.09961 22.6992 -9.40039zM314.7 133.8l-116.9 116.8c-3.39941 3.40039 -7.89941 5.30078 -12.7002 5.30078
c-2.69922 0 -6.89941 -0.600586 -10.8994 -3.7002l-135.2 -104.5c-5.59961 -4.2998 -6.7002 -10 -6.90039 -13c-0.199219 -3 0.200195 -8.7998 5.2002 -13.7998l147.601 -147.601c4.59961 -4.59961 9.89941 -5.2998 12.6992 -5.2998c5.60059 0 10.8008 2.59961 14.2002 7
l104.4 135.2c5.5 7.09961 4.89941 17.2002 -1.5 23.5996zM463 342.5l17 16.9004l-56.7002 56.6992l-16.8994 -17c-7.5 -7.59961 -11.7002 -17.5996 -11.7002 -28.2998s4.09961 -20.7002 11.7002 -28.2998c7.59961 -7.5 17.5996 -11.7002 28.2998 -11.7002
s20.7002 4.10059 28.2998 11.7002z" />
    <glyph glyph-name="skating" unicode="&#xf7c5;" horiz-adv-x="448" 
d="M384 448c35.2998 0 64 -28.7998 64 -64.0996c0 -35.3008 -28.7002 -64 -64 -64c-6.2002 0 -12 1.19922 -17.7002 2.7998c2.2002 -3.2998 4.60059 -6.5 6.2002 -10.2998c9.90039 -24 4.5 -51.3008 -13.9004 -69.7002l-58.6992 -58.7002l49.2998 -49.2998
c12 -11.9004 18.7998 -28.4004 18.7998 -45.2998v-57.4004c0 -26.5 -21.5 -48 -48 -48s-48 21.5 -48 48v44.2002l-40 40l-79.2002 -79.2002c-18.7998 -18.7998 -49.2002 -18.7998 -67.8994 0c-9.10059 9 -14.1006 21.0996 -14.1006 33.9004
c0 12.7998 5 24.7998 14.1006 33.8994l91 91c-0.600586 4.40039 -1 9 -0.800781 13.5c0.707031 17.5781 7.12305 33.8115 17.4004 46.7002h-48.5c-26.5 0 -48 21.5 -48 48s21.5 48 48 48h169.4c5.7998 0 11.5 -1 16.8994 -2.5c-6.5 10 -10.2998 21.7998 -10.2998 34.5
c0 35.2998 28.7002 64 64 64zM130.2 59.5l79.2998 79.2002c-15.7998 15.7998 -14.4004 13.8994 -21.0996 24.2002l-80.8008 -80.8008c-6.19922 -6.19922 -6.19922 -16.3994 0 -22.5996c6.2002 -6.2998 16.4004 -6.2002 22.6006 0zM336 265.4
c20.0996 20.0996 5.90039 54.5996 -22.5996 54.6992h-169.4c-8.7998 0 -16 -7.19922 -16 -16c0 -8.7998 7.2002 -16 16 -16h133.5l-53.7998 -45.3994c-18.1006 -15.5 -24.9004 -46.7998 -3.5 -69.4004c0.200195 -0.200195 0.200195 -0.399414 0.399414 -0.599609
c0.100586 0 0.100586 0 0.200195 -0.100586l0.299805 -0.299805l82.9004 -82.8994v-57.4004c0 -8.7998 7.2002 -16 16 -16s16 7.2002 16 16v57.4004c0 8.39941 -3.40039 16.5996 -9.40039 22.5996l-72 72zM384 352c17.7002 0 32 14.4004 32 32s-14.2998 32 -32 32
s-32 -14.4004 -32 -32s14.2998 -32 32 -32zM117.8 -8.59961c6.2998 6.2998 16.4004 6.19922 22.6006 0c6.19922 -6.2002 6.19922 -16.4004 0 -22.6006c-9.30078 -9.2998 -21.7002 -14 -33.9004 -14s-24.5996 4.60059 -33.9004 14l-67.8994 67.9004
c-6.2002 6.2002 -6.2002 16.3994 0 22.5996s16.3994 6.2002 22.5996 0l67.9004 -67.8994c6.2002 -6.2002 16.3994 -6.2002 22.5996 0zM400 0c8.7998 0 16 -7.2002 16 -16c0 -26.5 -21.5 -48 -48 -48h-96c-8.7998 0 -16 7.2002 -16 16s7.2002 16 16 16h96
c8.7998 0 16 7.2002 16 16s7.2002 16 16 16z" />
    <glyph glyph-name="ski-jump" unicode="&#xf7c7;" 
d="M510.8 256.5c6.10059 -35.7998 -11.0996 -72 -42.5996 -89.7998l-444.9 -228.8c-2.2998 -1.2002 -4.7998 -1.80078 -7.2998 -1.80078c-5.7998 0 -11.4004 3.2002 -14.2002 8.7002c-4.09961 7.7998 -1 17.5 6.90039 21.5l122.6 63
c-10.5996 5.10059 -19.0996 13.4004 -23.5996 24.2998c-5 11.8008 -5 24.9004 -0.100586 36.7002c12.2002 29.7998 21.3008 52.6006 28.5 70.7002c26 65.5 30 74.0996 63.7002 111h-39.7998c-26.5 0 -48 21.5 -48 48s21.5 48 48 48h162.3
c-1.39941 5.09961 -2.2998 10.4004 -2.2998 16c0 35.2998 28.7002 64 64 64s64 -28.7002 64 -64c0 -35.4004 -29 -64.5996 -65 -63.9004c3.09961 -21 -5.90039 -40.5996 -18.4004 -50.2998l-116.699 -90.7998l-46.8008 -113.9l251.9 129.5
c19.2998 11 30.0996 33.9004 26.2998 56.5c-1.5 8.80078 4.40039 17 13.1006 18.5c8.2998 1.40039 16.8994 -4.39941 18.3994 -13.0996zM384 416c-17.5996 0 -32 -14.4004 -32 -32s14.2998 -32 32 -32s32 14.4004 32 32s-14.2998 32 -32 32zM137.2 78.0996
c-3.2998 -8.19922 0.599609 -17.5 8.59961 -20.8994c8.40039 -3.40039 17.6006 0.599609 20.9004 8.7002l53.2998 129.3c0.900391 2.2002 2.2998 4.2002 3.09961 5l121.9 94.7998c15.0996 15.0996 4.40039 41 -17 41h-168c-8.7998 0 -16 -7.2002 -16 -16s7.2002 -16 16 -16
h112.4c-98.3008 -109.9 -65.2002 -55.7002 -135.2 -225.9z" />
    <glyph glyph-name="ski-lift" unicode="&#xf7c8;" 
d="M496 151.7c8.7998 0 16 -7.10059 15.7998 -16.2002c0 -31.5996 -19.8994 -60.2002 -49.5996 -71.2002l-344.9 -127.399c-10.8994 -4 -18.5996 4.39941 -20.5 9.5c-3 8.2998 1.2002 17.5 9.5 20.5996l177.101 65.4004c-24.3008 2.19922 -43.5 22.5996 -43.5 47.5v59.6992
l-77.2002 -18.3994c-23.7002 -5.7002 -44.7002 7.5 -53.5 24.8994l-43.2002 76.2002c-7.2998 12.9004 -9.40039 32.7998 -2.40039 50.2002c2.90039 7.09961 7.2002 13.5 12.4004 19c-25.5 8.5 -44 32.2002 -44 60.5c0 35.2998 28.7002 64 64 64s64 -28.7002 64 -64
c0 -17.9004 -7.40039 -34 -19.0996 -45.7998c14.1992 -5.2998 26.5 -15.5 33.3994 -29.5l27 -46.2998l76.2998 16.3994c16.1006 3.7002 31 -1.59961 40.6006 -9.5c11.2998 -9.09961 17.7998 -22.7002 17.7998 -37.2998v-120c0 -12.7998 -5.09961 -24.5 -13.4004 -33.0996
l128.7 47.5996c17.2002 6.2998 28.7002 22.9004 28.7002 41.2002c0 8.7998 7.2002 16 16 16zM64 352c0 -17.5996 14.2998 -32 32 -32s32 14.4004 32 32s-14.2998 32 -32 32s-32 -14.4004 -32 -32zM304 80.0996h-0.200195v120.101
c0 10.3994 -9.7998 17.7998 -19.2998 15.5996l-99.4004 -21.2998l-39.3994 67.4004c-1.7998 4.09961 -14.4004 23.5996 -36.6006 14.6992c-15.0996 -6.09961 -22.0996 -23.5996 -15.3994 -38.3994l43.7998 -77.1006c3.5 -7.59961 11.4004 -10.1992 17.7998 -8.69922
l116.7 27.7998v-100.101c0 -8.7998 7.2002 -16 16 -16s16 7.2002 16 16zM256 448v-176l-32 -8v184h32zM181.1 64.9004c-10.5996 -3.60059 -21.5 -5.2002 -32.1992 -5.30078c-38.3008 0 -74.8008 21.8008 -92.1006 58l-55.2002 115.5c-3.7998 7.90039 -0.5 17.5 7.5 21.3008
c7.90039 3.7998 17.5 0.5 21.3008 -7.5l55.3994 -115.5c15.2002 -31.8008 51.7998 -47.3008 85.2002 -36.2002c8.2998 2.7998 17.4004 -1.7002 20.2002 -10.1006c2.7998 -8.39941 -1.7002 -17.3994 -10.1006 -20.1992z" />
    <glyph glyph-name="skiing" unicode="&#xf7c9;" 
d="M507.3 -17.7002c6.2998 -6.2002 6.2998 -16.3994 -0.0996094 -22.5996c-15.4004 -15.5 -36.2002 -23.7002 -57.2998 -23.7002c-11.4004 0 -22.9004 2.40039 -33.7002 7.40039l-407.8 218.5c-7.7002 4.19922 -10.7002 13.8994 -6.5 21.6992
c4.19922 7.80078 14 10.6006 21.6992 6.5l200.601 -107.6c0.399414 7.90039 2.59961 15.9004 7.2002 23.0996l27.7998 47.2002l-66.9004 66.9004c-19.0996 19 -27.2002 46.2002 -21.7998 72.5996c2 9.7998 6.2998 18.6006 11.5 26.7002l-32.5 18.5996
c-11.5 -8.59961 -27.2998 -10.7998 -41 -3.7998l11.5 22.4004c0 0.0996094 0 0.200195 -0.0996094 0.299805l-26.1006 22.9004c-4 3.5 -0.799805 10.1992 4.5 9.09961l34.6006 -7l11.0996 21.7998c14.4004 -7.39941 22.2002 -22.3994 21.0996 -37.5996l40 -22.9004
c4.5 2.90039 9.10059 5.7998 14.2002 7.7998l83.4004 33.4004c18.2002 7.2998 34.5996 6.7002 49.5996 2.90039c1.5 33.8994 29.4004 61.0996 63.7002 61.0996c35.2998 0 64 -28.7998 64 -64.0996c0 -35.3008 -28.7002 -64 -64 -64
c-0.900391 0 -1.7998 0.299805 -2.7998 0.299805l10.0996 -30.2002l46.1006 -23.2002c23.6992 -11.7998 33.2998 -40.7002 21.5 -64.3994c-6.30078 -12.4004 -30.8008 -38.1006 -64.4004 -21.4004l-131.3 71.7998l49.5 -49.5c21.2998 -21.2998 24.7998 -54.7998 8.5 -80
l-40.2998 -68.3994l-0.5 -0.800781l-0.5 -0.799805c-3.10059 -4.59961 -7.10059 -8.39941 -11.5 -11.5996l130.1 -69.7002c17.5996 -8.09961 39.7998 -4.2002 54.2002 10.2998c6.2002 6.2998 16.3994 6.2998 22.5996 0zM416 416c-17.7002 0 -32 -14.4004 -32 -32
s14.2998 -32 32 -32s32 14.4004 32 32s-14.2998 32 -32 32zM314.6 354.2l-76.1992 -30.5l60.1992 -34.5l50.1006 22.3994l18.0996 -54.3994c1.2998 -4 3.40039 -7.5 6 -10.6006l39.7998 -22.7998l28.3008 -14.0996c18.8994 -9.40039 33.2998 19.0996 14.2998 28.5996
l-58.1006 29l-19.1992 57.5c-5.90039 17.7998 -30.5 42.5 -63.3008 29.4004zM258.7 88.7998c-11.7002 -17.5 14.7002 -35.3994 26.5996 -17.7002l40.7002 69.1006c8.40039 12.5996 6.7998 29.5996 -4 40.3994l-82.4004 82.4004l22.7002 10.0996l-52.7002 30.2002
c-3.59961 -5.2002 -6.39941 -10.8994 -7.69922 -17.2998c-3.2002 -15.9004 1.69922 -32.2002 13.0996 -43.5996l84.4004 -84.5z" />
    <glyph glyph-name="skiing-nordic" unicode="&#xf7ca;" horiz-adv-x="576" 
d="M560 16c8.7998 0 16 -7.2002 16 -16c0 -35.2998 -28.7002 -64 -64 -64h-496c-8.7998 0 -16 7.2002 -16 16s7.2002 16 16 16h49.2998l53.5 267.7c-4.7998 3 -9.2998 6.7002 -12.8994 11.5c-7.80078 10.2002 -11.2002 22.7998 -9.5 35.5
c1.69922 12.7002 8.19922 24 18.3994 31.7998l39.6006 30.4004c27 20.6992 61.3994 27.8994 94.3994 20l29.6006 -8.80078c-4.10059 8.40039 -6.40039 17.9004 -6.40039 27.9004c0 35.2998 28.7002 64 64 64s64 -28.7002 64 -64c0 -27 -16.7998 -50.2002 -40.7002 -59.5
c13.7002 -10.5996 25.1006 -24.2998 32.9004 -40.2002l21.7002 -44.2998h34.0996c26.5 0 48 -21.5 48 -48c0 -19.7002 -12 -36.5996 -29 -44l-25.7002 -180h70.7002c17.7002 0 32 14.4004 32 32c0 8.7998 7.2002 16 16 16zM237.6 93.5996
c-13.3994 7.90039 -18.5 10.2002 -26.7998 18l-57.2002 -120.699c-9.19922 -19.4004 19.9004 -32.6006 28.9004 -13.7002zM265.3 77.2002l-51.7002 -109.2h61.4004c-3.5 9.7998 -3.90039 20.2998 -0.799805 30.4004l23 60zM368.7 127.7
c24.8994 -15 36.7002 -44.7998 28.8994 -72.5l-32.0996 -86.2998c-0.0996094 -0.300781 -0.299805 -0.600586 -0.400391 -0.900391h43.9004l25.0996 176h-40.0996c-24.2998 0 -46.7998 14.0996 -57.5 35.9004l-4.40039 9.09961l-12.7998 -32.0996zM336 416
c-17.7002 0 -32 -14.4004 -32 -32s14.2998 -32 32 -32s32 14.4004 32 32s-14.2998 32 -32 32zM134.3 289.1c-16.5996 -12.6992 2.40039 -38.3994 19.4004 -25.5l39.7002 30.4004c8.5 6.5 19.0996 10.0996 29.2998 10.0996c7.5 0 7.5 -0.5 42.2002 -10.7998l-44.5 -103.899
c-9.5 -22.1006 -1 -48 19.6992 -60.2002l96.7002 -57l-32.2998 -84.4004c-5.59961 -18.5 24.4004 -29.2998 30.7998 -8.59961l31.9004 85.8994c3.5 12.6006 -2.40039 27.6006 -14.9004 35.1006l-73 43l49.7998 124.5l36.1006 -73.7998
c5.39941 -10.9004 16.7002 -17.9004 28.7998 -17.9004h54c21.2002 0 21.2002 32 0 32h-54l-30.5 62.2002c-10.2002 21 -29.4004 36.8994 -51.2998 42.5l-71.7002 21.2998c-22.7002 5.40039 -47.2998 0.200195 -66.5996 -14.5zM150.1 229l-52.1992 -261.1h24.8994
c-4.2998 12.0996 -3.7002 25 1.7998 36.5996l65.3008 137.9c-7.10059 18.7998 -7.40039 40.0996 1 59.6992l30.0996 70.1006c-2.2998 -0.400391 -5.40039 -1.40039 -8.09961 -3.5l-39.7002 -30.4004c-7 -5.2998 -15 -8.2998 -23.1006 -9.2998z" />
    <glyph glyph-name="sledding" unicode="&#xf7cb;" 
d="M507.3 14.9004c6.2998 -6.2002 6.2998 -16.3008 0 -22.6006c-15.7998 -15.8994 -37.2002 -24.2998 -58.8994 -24.2998c-11.7002 0 -23.6006 2.5 -34.7002 7.59961l-405 209.301c-7.90039 4.09961 -11 13.7998 -6.90039 21.5996
c4.10059 7.90039 13.9004 10.9004 21.6006 6.90039l137.699 -71.3008c-1.89941 3.10059 -4.19922 5.90039 -5.59961 9.30078c-9.90039 24 -4.5 51.3994 13.9004 69.7998l18.6992 18.7002h-28.0996c-26.5 0 -48 21.5 -48 48s21.5 48 48 48h137.3
c9.7002 0 18.6006 -2.80078 27 -6.7002c-2.59961 7.09961 -4.2998 14.7002 -4.2998 22.7002c0 35.2998 28.7002 64 64 64s64 -28.7002 64 -64c0 -35.3008 -28.7002 -64 -64 -64c-9.59961 0 -18.7002 2.2998 -26.9004 6.09961
c8.60059 -23.4004 3.30078 -49.5996 -14.5 -67.4004l-18.6992 -18.6992h12.0996c26.5 0 48 -21.5 48 -48v-88c0 -14.6006 -6.59961 -27.5 -16.9004 -36.3008l60.6006 -31.2998c18.7998 -8.59961 41.8994 -4.5 57 10.6006c6.2002 6.2998 16.3994 6.2998 22.5996 0zM384 384
c-17.7002 0 -32 -14.4004 -32 -32s14.2998 -32 32 -32s32 14.4004 32 32s-14.2998 32 -32 32zM192 198.6c-20.2002 -20.1992 -5.90039 -54.5996 22.5996 -54.5996h105.4v-72c0 -8.7998 7.2002 -16 16 -16s16 7.2002 16 16v88c0 8.7998 -7.2002 16 -16 16h-89.4004
l73.5 73.2998c9.10059 9.2002 11.9004 22.9004 6.90039 34.9004s-16.5996 19.7998 -29.5996 19.7998h-137.4c-8.7998 0 -16 -7.2002 -16 -16s7.2002 -16 16 -16h105.4zM288 112h-68.5l68.5 -35.4004v35.4004z" />
    <glyph glyph-name="sleigh" unicode="&#xf7cc;" horiz-adv-x="640" 
d="M615.8 83.0996c16.5 -13.2998 25.2998 -33.0996 24.1006 -54.2998c-1.90039 -33.5 -32.4004 -60.7998 -67.9004 -60.7998h-532c-4.40039 0 -8 3.59961 -8 8v16c0 4.40039 3.59961 8 8 8h88v75c-56.0996 22.4004 -96 77 -96 141v168h-24c-4.40039 0 -8 3.59961 -8 8v16
c0 4.40039 3.59961 8 8 8h44.7002c69.2998 0 116.8 -16.7002 169 -104.6c47.2002 -79.3008 136.1 -96.4004 184.2 -83.1006c12.6992 3.5 42.0996 14.6006 42.0996 42.7002v48.5c0 17.7002 14.2998 32 32 32h120c4.40039 0 8 -3.59961 8 -8v-16c0 -4.40039 -3.59961 -8 -8 -8
h-24v-137.3c0 -65.1006 -52.9004 -118 -118 -118h-10v-64h127.4c20 0 35.8994 18.0996 32.0996 38.7002c-1.40039 7.89941 -6.2002 14.8994 -12.5 20l-13.5 10.5c-3.40039 2.69922 -4 7.7998 -1.2002 11.1992l10 12.5c2.7002 3.40039 7.7998 4 11.2002 1.2002zM64 216
c0 -66.2002 53.7998 -120 120 -120h274c47.4004 0 86 38.5996 86 86v137.5h-64v-48.5c0 -34.7002 -24.5 -62.2002 -65.5996 -73.5c-13.1006 -3.7002 -27.4004 -5.5 -42.4004 -5.5c-62.2002 0 -135.5 31.9004 -177.7 103.1c-42.0996 70.6006 -76.8994 86.7002 -130.3 88.5
v-167.6zM160 0h256v64h-232c-8.2002 0 -16.0996 1.09961 -24 2.40039v-66.4004z" />
    <glyph glyph-name="sms" unicode="&#xf7cd;" 
d="M304 272c8.7998 0 16 -7.2002 15.9004 -16v-104c0 -4.40039 -3.60059 -8 -8 -8h-16c-4.40039 0 -8 3.59961 -8 8v68.2002l-24.8008 -55.7998c-2.89941 -5.90039 -11.3994 -5.90039 -14.2998 0l-24.7998 55.7998v-68.2002c0 -4.40039 -3.59961 -8 -8 -8h-16
c-4.40039 0 -8 3.59961 -8 8v104c0 8.7998 7.2002 16 16 16h16c6.09961 0 11.5996 -3.40039 14.2998 -8.7998l17.7002 -35.4004l17.7002 35.4004c2.7002 5.39941 8.2002 8.7998 14.2998 8.7998h16zM135.4 229.5l22 -18.7998
c8.39941 -7.2002 13.2998 -17.4004 13.2998 -28.1006c0 -21.2998 -19 -38.5996 -42.4004 -38.5996h-12.2998c-4.40039 0 -8 3.59961 -8 8v16c0 4.40039 3.59961 8 8 8h12.2998c5.90039 0 10.4004 3.5 10.4004 6.59961c0 1.30078 -0.700195 2.60059 -2.10059 3.80078
l-21.8994 18.7998c-8.40039 7.2002 -13.2998 17.3994 -13.2998 28.0996c0 21.2998 19 38.6006 42.3994 38.6006h12.2002c4.40039 0 8 -3.60059 8 -8v-16c0 -4.40039 -3.59961 -8 -8 -8h-12.2998c-5.90039 0 -10.4004 -3.5 -10.4004 -6.60059
c0 -1.2998 0.700195 -2.59961 2.10059 -3.7998zM375.4 229.5l22 -18.7998c8.39941 -7.2002 13.2998 -17.4004 13.2998 -28.1006c0 -21.2998 -19 -38.5996 -42.4004 -38.5996h-12.2998c-4.40039 0 -8 3.59961 -8 8v16c0 4.40039 3.59961 8 8 8h12.2002
c5.89941 0 10.3994 3.5 10.3994 6.59961c0 1.30078 -0.699219 2.60059 -2.09961 3.80078l-21.9004 18.7998c-8.39941 7.2002 -13.2998 17.3994 -13.2998 28.0996c0 21.2998 19 38.6006 42.4004 38.6006h12.2998c4.40039 0 8 -3.60059 8 -8v-16c0 -4.40039 -3.59961 -8 -8 -8
h-12.2998c-5.90039 0 -10.4004 -3.5 -10.4004 -6.60059c0 -1.2998 0.700195 -2.59961 2.10059 -3.7998zM256 416c141.4 0 256 -93.0996 256 -208s-114.6 -208 -256 -208c-32.7998 0 -64 5.2002 -93 14.2998c-29.0996 -20.5996 -77.5996 -46.2998 -139.1 -46.2998
c-9.60059 0 -18.2002 5.7002 -22 14.5c-3.80078 8.7998 -2 19 4.59961 26c0.5 0.400391 31.5 33.7998 46.4004 73.2002c-33 35.0996 -52.9004 78.7002 -52.9004 126.3c0 114.9 114.6 208 256 208zM256 32c123.5 0 224.1 79 224.1 176s-100.5 176 -224 176
s-224 -79 -224 -176c0 -37.5996 15.3008 -73.7002 44.1006 -104.3l13.7002 -14.6006l-7.10059 -18.6992c-11 -29.2002 -28.7998 -54.5 -40.7998 -69.6006c44.0996 4.2998 79.5996 23.2998 102.6 39.6006l13 9.19922l15.2002 -4.7998
c26.9004 -8.5 54.9004 -12.7998 83.2002 -12.7998z" />
    <glyph glyph-name="snowboarding" unicode="&#xf7ce;" 
d="M492.8 270.4c21.2002 -15.8008 25.5 -46 9.60059 -67.2002c-9 -12 -23.4004 -19.2002 -38.4004 -19.2002c-10.5 0 -20.4004 3.2998 -28.7998 9.59961l-63.4004 47.6006l-30.7002 -14.2002l31.1006 -22.4004c20.0996 -15.0996 29.7002 -40.5 24.5 -64.8994l-21.9004 -102
c-4.09961 -18.9004 -19.5 -32.6006 -37.8994 -36.2998l84.5996 -30.8008c11.7998 -4.2998 24.4004 -3.69922 35.7002 1.5c8 3.7002 17.5996 0.300781 21.2998 -7.69922s0.200195 -17.5 -7.7998 -21.2002c-10.6006 -4.90039 -21.9004 -7.40039 -33.2002 -7.40039
c-9 0 -18.0996 1.60059 -26.9004 4.7998l-364.8 132.801c-19.7002 7.19922 -35.3994 21.5996 -44.2998 40.5996c-3.7998 8 -0.299805 17.5996 7.7002 21.2998s17.5 0.299805 21.2998 -7.7002c5.2998 -11.2998 14.5996 -19.7998 26.2998 -24.0996l51.2998 -18.7002
c-11.7998 5.5 -21.3994 15.1006 -25.6992 28c-8.30078 25.2002 5.2998 52.4004 30.3994 60.7002l63.2002 21.0996v41.6006c0 30.5 17 58 44.2998 71.5996l11.7998 5.90039c-3.7998 4.2002 -7 8.89941 -9.59961 14.0996l-25.4004 50.7998
c-11.7998 23.6006 -2.19922 52.5 21.6006 64.4004c6.59961 3.2998 14 5 21.2998 5c18.2998 0 34.7998 -10.2002 43 -26.5l19.2998 -38.9004l47.6006 -15.3994c1.7998 -0.600586 3.5 -1.5 5.2998 -2.2002c-1.90039 6.09961 -3.2002 12.4004 -3.2002 19
c0 35.2998 28.7002 64 64 64s64 -28.7002 64 -64c0 -32 -23.7998 -58.4004 -54.5996 -63zM416 416c-17.5996 0 -32 -14.4004 -32 -32s14.2998 -32 32 -32s32 14.4004 32 32s-14.2998 32 -32 32zM291.3 18.2998c-2.59961 3.2002 -15.2998 16.1006 -10.0996 39.7998
l17.3994 81.4004l-27.6992 19.7002c-4.40039 -22.2998 -20.4004 -40.9004 -42.6006 -48.2998l-85.0996 -28.3008c-14.1006 -4.69922 -24 -1.2998 -26.6006 -0.699219zM476.8 222.4c5.2998 7.09961 3.90039 17.0996 -3 22.5l-97.5 73.0996
c-11 8.2998 -23.2002 14.7002 -36.2998 19l-60.0996 19.4004l-25.4004 50.7998c-3.2002 6.39941 -12.0996 11.8994 -21.5 7.2002c-8 -4 -11.0996 -13.6006 -7.2002 -21.5l25.4004 -50.8008c3.5 -7.19922 9.7002 -12.5996 17.2998 -15.0996l37.0996 -12.4004l-71 -35.5
c-16.2998 -8.19922 -26.5 -24.5996 -26.5 -42.8994v-64.7002l-85.0996 -28.4004c-8.2998 -2.69922 -12.9004 -11.7998 -10.0996 -20.1992c2.2998 -6.7002 8.5 -10.9004 15.1992 -10.9004c3.60059 0 -1.89941 -1.5 90.1006 29.2002
c13.0996 4.39941 21.8994 16.5996 21.8994 30.3994v48.8008l94.2002 -67l-21.7998 -102c-1.90039 -8.7002 3.59961 -17.2002 12.2998 -19c7.90039 -1.7002 17 3 19 12.2998l21.7998 102c2.60059 12.0996 -2.09961 24.7998 -12.3994 32.5l-75.6006 53.7998l98.1006 45.2002
l78.7002 -59c7.09961 -5.2998 17.0996 -3.90039 22.3994 3.2002z" />
    <glyph glyph-name="snowflakes" unicode="&#xf7cf;" horiz-adv-x="640" 
d="M527.9 328v28.4004l-28 -16.1006c-3.80078 -2.2002 -8.7002 -0.899414 -10.9004 2.90039l-8 13.8994c-2.2002 3.80078 -0.900391 8.7002 2.90039 10.9004l27.8994 16l-27.8994 16c-3.80078 2.2002 -5.10059 7.09961 -2.90039 10.9004l8 13.8994
c2.2002 3.7998 7.09961 5.10059 10.9004 2.90039l28 -16.1006v28.4004c0 4.40039 3.59961 8 8 8h16c4.39941 0 8 -3.59961 8 -8v-28.4004l28 16.1006c3.7998 2.2002 8.69922 0.899414 10.8994 -2.90039l8 -13.8994c2.2002 -3.80078 0.900391 -8.7002 -2.89941 -10.9004
l-27.9004 -16l27.9004 -16c3.7998 -2.2002 5.09961 -7.09961 2.89941 -10.9004l-8 -13.8994c-2.2002 -3.7998 -7.09961 -5.10059 -10.8994 -2.90039l-28 16.1006v-28.4004c0 -4.40039 -3.60059 -8 -8 -8h-16c-4.40039 0 -8 3.59961 -8 8zM608.1 192l27.9004 -16
c3.7998 -2.2002 5.09961 -7.09961 2.90039 -10.9004l-8 -13.8994c-2.2002 -3.7998 -7.10059 -5.10059 -10.9004 -2.90039l-28 16.1006v-28.4004c0 -4.40039 -3.59961 -8 -8 -8h-16c-4.40039 0 -8 3.59961 -8 8v28.4004l-28 -16.1006
c-3.7998 -2.2002 -8.7002 -0.899414 -10.9004 2.90039l-8 13.8994c-2.19922 3.80078 -0.899414 8.7002 2.90039 10.9004l27.9004 16l-27.9004 16c-3.7998 2.2002 -5.09961 7.09961 -2.90039 10.9004l8 13.8994c2.2002 3.7998 7.10059 5.10059 10.9004 2.90039l28 -16.1006
v28.4004c0 4.40039 3.59961 8 8 8h16c4.40039 0 8 -3.59961 8 -8v-28.4004l28 16.1006c3.7998 2.2002 8.7002 0.899414 10.9004 -2.90039l8 -13.8994c2.19922 -3.80078 0.899414 -8.7002 -2.90039 -10.9004zM387.9 114.5l56.2998 -32.7002
c3.7998 -2.2002 5.09961 -7.09961 2.89941 -10.8994l-7.89941 -13.9004c-2.2002 -3.7998 -7 -5.09961 -10.7998 -2.90039l-55.9004 32.7002l14.0996 -53.2998c1.10059 -4.2998 -1.39941 -8.7002 -5.59961 -9.7998l-15.2998 -4.10059
c-4.2002 -1.09961 -8.60059 1.40039 -9.7002 5.7002l-22.2998 84.2002l-93.7002 54.7998v-109.6l60.9004 -61.7002c3.09961 -3.09961 3.09961 -8.2002 0 -11.2998l-11.2002 -11.2998c-3.10059 -3.10059 -8.10059 -3.10059 -11.2002 0l-38.5996 39v-65.4004
c0 -4.40039 -3.5 -8 -7.90039 -8h-15.7998c-4.40039 0 -7.90039 3.59961 -7.90039 8v65.4004l-38.5996 -39c-3.10059 -3.10059 -8.10059 -3.10059 -11.2002 0l-11.2002 11.2998c-3.09961 3.09961 -3.09961 8.2002 0 11.2998l61 61.7002v109.7l-93.7002 -54.8008
l-22.2998 -84.1992c-1.09961 -4.30078 -5.5 -6.80078 -9.7002 -5.7002l-15.2998 4.09961c-4.2002 1.10059 -6.7002 5.5 -5.59961 9.7998l14.0996 53.3008l-55.8994 -32.7002c-3.80078 -2.2002 -8.60059 -0.900391 -10.8008 2.89941l-7.89941 13.9004
c-2.2002 3.7998 -0.900391 8.7002 2.89941 10.9004l55.9004 32.5996l-52.7002 14.2998c-4.2002 1.10059 -6.7002 5.5 -5.59961 9.7998l4.09961 15.5c1.10059 4.30078 5.5 6.80078 9.7002 5.7002l83.0996 -22.5996l93.7002 54.7998l-93.7002 54.7998l-83.0996 -22.5996
c-4.2002 -1.10059 -8.59961 1.39941 -9.7002 5.7002l-4.09961 15.5c-1.10059 4.2998 1.39941 8.69922 5.59961 9.7998l52.6006 14.3994l-55.9004 32.7002c-3.7998 2.2002 -5.09961 7.10059 -2.90039 10.9004l7.90039 13.8994c2.2002 3.80078 7 5.10059 10.7998 2.90039
l55.7998 -32.7002l-14.0996 53.2998c-1.09961 4.30078 1.40039 8.7002 5.59961 9.80078l15.3008 4.09961c4.19922 1.09961 8.59961 -1.40039 9.69922 -5.7002l22 -84.3994l93.7002 -54.8008v109.7l-60.8994 61.7002c-3.10059 3.09961 -3.10059 8.2002 0 11.2998
l11.1992 11.2998c3.10059 3.10059 8.10059 3.10059 11.2002 0l38.6006 -39v65.4004c0 4.40039 3.5 8 7.89941 8h15.7998c4.40039 0 7.90039 -3.59961 7.90039 -8v-65.4004l38.5996 39c3.10059 3.10059 8.10059 3.10059 11.2002 0l11.2002 -11.2998
c3.09961 -3.09961 3.09961 -8.2002 0 -11.2998l-61 -61.5996v-109.7l93.7002 54.7998l22.2998 84.2002c1.09961 4.2998 5.5 6.7998 9.7002 5.7002l15.2998 -4.10059c4.2002 -1.09961 6.7002 -5.5 5.59961 -9.7998l-14.0996 -53.2998l55.9004 32.7002
c3.7998 2.19922 8.59961 0.899414 10.7998 -2.90039l7.89941 -13.9004c2.2002 -3.7998 0.900391 -8.69922 -2.89941 -10.8994l-55.9004 -32.7002l52.7002 -14.2998c4.2002 -1.10059 6.7002 -5.5 5.59961 -9.7998l-4.09961 -15.5
c-1.09961 -4.30078 -5.5 -6.80078 -9.7002 -5.7002l-83.0996 22.5996l-93.7002 -54.7998l93.7998 -54.7998l83.1006 22.5996c4.19922 1.10059 8.59961 -1.39941 9.69922 -5.7002l4.10059 -15.5c1.09961 -4.2998 -1.40039 -8.69922 -5.60059 -9.7998z" />
    <glyph glyph-name="snowman" unicode="&#xf7d0;" 
d="M256 112c8.7998 0 16 -7.2002 16 -16s-7.2002 -16 -16 -16s-16 7.2002 -16 16s7.2002 16 16 16zM224 376c8.7998 0 16 -7.2002 16 -16s-7.2002 -16 -16 -16s-16 7.2002 -16 16s7.2002 16 16 16zM511.3 300.5c1.7998 -4.09961 -0.0996094 -8.7998 -4.2002 -10.5996
l-133.3 -57.1006c1.90039 -8.39941 3.2002 -17 3.2002 -25.7998c0 -7.2002 -0.799805 -14.4004 -2.40039 -22.2998c19.3008 -21.7002 32.1006 -47.7002 37.2002 -75.7998c11.2998 -62.3008 -13.7998 -123.2 -65.5996 -159.101c-13 -9 -28.2002 -13.7998 -44 -13.7998h-93
c-14.2998 0 -27.4004 3.5 -37.9004 10.0996c-46.2002 29.4004 -73.7998 79.2002 -73.7998 133.4c0 39.0996 14.0996 76.0996 39.9004 105.1c-1.60059 7.90039 -2.40039 15.2002 -2.40039 22.4004c0 8.7998 1.2998 17.4004 3.2002 25.7998l-133.3 57.1006
c-4.10059 1.69922 -5.90039 6.39941 -4.2002 10.5l6.2998 14.6992c1.7002 4.10059 6.40039 5.90039 10.5 4.2002l46.5 -19.8994v44.5996c0 4.40039 3.59961 8 8 8h16c4.40039 0 8 -3.59961 8 -8v-58.2998l53.4004 -22.9004c4.59961 8.60059 9.7998 16.7998 16.3994 24.2002
c-10.3994 16.7002 -15.7998 35.5 -15.7998 55c0 58.5 47.5996 106 106 106s106 -47.5 106 -106c0 -19.5996 -5.40039 -38.2998 -15.7998 -55c6.59961 -7.2998 11.7998 -15.5996 16.3994 -24.2002l53.4004 22.9004v58.2998c0 4.40039 3.59961 8 8 8h16
c4.40039 0 8 -3.59961 8 -8v-44.5996l46.5 20c4.09961 1.69922 8.7998 -0.100586 10.5 -4.2002zM380.3 103.2c-1.2002 6.89941 -4 35 -41.0996 72.0996c5.5 20.6006 5.7998 25.1006 5.7998 31.7002c0 25.5 -10.7998 49 -30.2998 66.2998l-11.5 10.2002l9.7002 11.9004
c11.0996 13.5996 17 29.6992 17 46.5996c0 40.7998 -33.2002 74 -74 74c-40.8008 0 -74 -33.2002 -74 -74c0 -16.9004 5.7998 -33 17 -46.5996l9.69922 -11.9004l-11.5 -10.2002c-19.5 -17.2998 -30.1992 -40.7998 -30.1992 -66.2998c0 -6.2998 0 -10.2998 5.7998 -31.7998
c-43.7998 -44.1006 -43.2998 -82.4004 -43.2998 -95.7002c0 -43.0996 22 -82.9004 58.8994 -106.3c6.7998 -4.2998 15.1006 -5.2002 20.7998 -5.2002h93c9.2002 0 18.2002 2.7998 25.8008 8.09961c41.3994 28.6006 61.3994 77.3008 52.3994 127.101zM256 176
c8.7998 0 16 -7.2002 16 -16s-7.2002 -16 -16 -16s-16 7.2002 -16 16s7.2002 16 16 16zM288 376c8.7998 0 16 -7.2002 16 -16s-7.2002 -16 -16 -16s-16 7.2002 -16 16s7.2002 16 16 16zM256 240c8.7998 0 16 -7.2002 16 -16s-7.2002 -16 -16 -16s-16 7.2002 -16 16
s7.2002 16 16 16zM256 336c8.7998 0 16 -7.2002 16 -16s-16 -32 -16 -32s-16 23.2002 -16 32s7.2002 16 16 16z" />
    <glyph glyph-name="snowmobile" unicode="&#xf7d1;" horiz-adv-x="640" 
d="M639.2 -18.7002c1.89941 -4 0.299805 -8.7998 -3.60059 -10.7998l-57.6992 -26.0996c-11.1006 -5.5 -23.3008 -8.40039 -35.7002 -8.40039h-118.2c-4.40039 0 -8 3.59961 -8 8v16c0 4.40039 3.59961 8 8 8h88l-48 64h-152.9c5.5 -9.5 8.90039 -20.2998 8.90039 -32
c0 -35.2998 -28.7002 -64 -64 -64h-192c-35.2998 0 -64 28.7002 -64 64c0 29.7998 20.5 54.5996 48.0996 61.7002c-0.399414 5.5 0.600586 11.2002 3.30078 16.5996l32 64c5.39941 10.9004 16.5 17.7002 28.5996 17.7002h4.59961
c-4.89941 5.40039 -9.2998 11.2998 -12.6992 18.0996c-11.3008 22.6006 -11.2002 48.6006 0.0996094 71.3008l25.2998 50.2998c18.2998 36.3994 51.7998 42.2002 61.9004 43.3994c-9.2998 11.1006 -15.1006 25.2002 -15.1006 40.8008c0 35.2998 28.7002 64 64 64
c35.3008 0 64 -28.7002 64 -64c0 -29.8008 -20.6992 -54.8008 -48.3994 -61.8008c0.0996094 -0.0996094 0.299805 -0.199219 0.399414 -0.299805l41.1006 -33.7998h38.7998c24.7998 0 45.0996 -19.0996 47.5 -43.2998l16.9004 22.5996l-46.8008 93.6006
c-3.89941 7.89941 -0.699219 17.5 7.2002 21.5c8 3.89941 17.5 0.699219 21.5 -7.2002l47.7998 -95.6006l138.101 -82.8994c4.89941 -2.90039 7.7998 -8.10059 7.7998 -13.7002v-78.4004c0 -5.2998 -2.59961 -10.2998 -7.09961 -13.2998l-72.9004 -48.5996l55.2002 -73.6006
c4.2998 0.800781 8.5 2 12.3994 4l57.7002 26.1006c3.90039 2 8.7002 0.399414 10.7002 -3.60059zM240 416c-17.7002 0 -32 -14.4004 -32 -32s14.2998 -32 32 -32s32 14.4004 32 32s-14.2998 32 -32 32zM132.7 235.1c-6.7998 -13.5996 -6.90039 -29.1992 -0.200195 -43
c6.7998 -13.5996 19.2998 -23 34.2002 -25.7998l84.8994 -15.8994l-69.8994 -58.2002c-6.7998 -5.60059 -7.7002 -15.7002 -2 -22.5c5.39941 -6.5 15.3994 -7.90039 22.5 -2l69.8994 58.2998c20.8008 17.2998 12 51 -14.5996 56l-76.5 14.2998l37 74l43 -35.2998
c8.59961 -7 19.4004 -10.9004 30.5 -10.9004h44.5c8.7998 0 16 7.2002 16 16c0 8.80078 -7.2002 16 -16 16h-44.4004c-3.69922 0 -7.39941 1.30078 -10.1992 3.60059l-46.6006 38.2998c-17 16.9004 -37 14.2002 -41.7002 13.4004
c-15.3994 -2.5 -28.1992 -12 -35.1992 -25.9004zM344.7 192.9c-2.90039 -0.5 -5.7002 -0.900391 -8.7002 -0.900391h-35.5c12.7998 -15.0996 13.5 -29.2998 13.5996 -29.5996c6 2 11.6006 5.19922 15.5 10.3994zM228.9 219.9h-0.200195v0.0996094zM112 128l-32 -64h67
c-6.5 18.4004 -1.5 39.7002 14.2998 52.9004l13.2998 11.0996h-62.5996zM256 -32c17.7002 0 32 14.2998 32 32s-14.2998 32 -32 32h-192c-17.7002 0 -32 -14.2998 -32 -32s14.2998 -32 32 -32h192zM247.8 64h222.5l73.7002 49.0996v60.8008l-119.7 71.7998
l-69.0996 -92.1006c-10.4004 -14 -26.4004 -22.5996 -43.5 -24.6992c-3.7002 -10.4004 -10 -20 -19 -27.5z" />
    <glyph glyph-name="snowplow" unicode="&#xf7d2;" horiz-adv-x="640" 
d="M360 72c13.2998 0 24 -10.7002 24 -24s-10.7002 -24 -24 -24s-24 10.7002 -24 24s10.7002 24 24 24zM572.4 24.5996l65.0996 -63.6992c3.09961 -3.10059 3.09961 -8.2002 0 -11.3008l-11.2998 -11.2998c-3.10059 -3.09961 -8.2002 -3.09961 -11.2998 0l-65.2002 63.6006
c-15 15 -23.4004 35.3994 -23.4004 56.5996v53.5h-66.5996c12.7002 -18.2002 20.2998 -40.2002 20.2998 -64c0 -61.9004 -50.0996 -112 -112 -112h-256c-61.9004 0 -112 50.0996 -112 112c0 37.2002 18.2998 69.9004 46.2002 90.2998v133.7c0 26.5 21.5 48 48 48h16v80
c0 26.5 21.5 48 48 48h144.3c19.2998 0 36.5996 -11.4004 44.2002 -29.0996l78.2998 -182.801c3.40039 -8 5.2002 -16.5 5.2002 -25.1992v-66.9004h96.0996v53.5996c0 21.2002 8.40039 41.6006 23.4004 56.6006l65.2998 63.5996c3.09961 3.10059 8.2002 3.10059 11.2998 0
l11.2998 -11.2998c3.10059 -3.09961 3.10059 -8.2002 0 -11.2998l-65.1992 -63.6006c-9 -9 -14.1006 -21.2998 -14.1006 -34v-139c0 -12.7998 5.10059 -25 14.1006 -34zM142.2 320v-0.299805l72 -95.7002h181.2l-78.1006 182.3c-2.5 5.90039 -8.2998 9.7002 -14.7998 9.7002
h-144.3c-8.7998 0 -16 -7.2002 -16 -16v-80zM78.2002 272v-117.8c10.7002 3.5 21.8994 5.7998 33.7998 5.7998h256c10.5 0 20.5 -1.90039 30.2002 -4.59961v36.5996h-192c-5 0 -9.7998 2.40039 -12.7998 6.40039l-67.4004 89.5996h-31.7998c-8.7998 0 -16 -7.2002 -16 -16z
M368 -32c44.0996 0 80 35.9004 80 80s-35.9004 80 -80 80h-256c-44.0996 0 -80 -35.9004 -80 -80s35.9004 -80 80 -80h256zM120 72c13.2998 0 24 -10.7002 24 -24s-10.7002 -24 -24 -24s-24 10.7002 -24 24s10.7002 24 24 24zM200 72c13.2998 0 24 -10.7002 24 -24
s-10.7002 -24 -24 -24s-24 10.7002 -24 24s10.7002 24 24 24zM280 72c13.2998 0 24 -10.7002 24 -24s-10.7002 -24 -24 -24s-24 10.7002 -24 24s10.7002 24 24 24z" />
    <glyph glyph-name="star-christmas" unicode="&#xf7d4;" 
d="M493.7 215.6c11.7998 -3 18.2998 -13.2998 18.3994 -23.5996c0 -10.5 -6.7998 -20.7002 -18.5 -23.5996l-139.899 -35l66.7002 -83.4004c5.19922 -6.5 4.69922 -15.5 -1.10059 -21.2998c-5.5 -5.5 -14.3994 -6.60059 -21.2998 -1.10059l-83.2998 67l-35 -140.199
c-4.2002 -16.3008 -19.1006 -18.4004 -23.6006 -18.4004c-10.2998 0 -20.5996 6.5 -23.5996 18.4004l-35 140l-83.4004 -66.7002c-6.7998 -5.40039 -15.6992 -4.40039 -21.2998 1.09961c-5.7998 5.7998 -6.2998 14.7998 -1.09961 21.2998l66.8994 83.3008l-140.199 35
c-11.9004 2.89941 -18.4004 13.3994 -18.4004 23.5996c0 11.2998 7.5 20.7998 18.4004 23.5l140 35l-66.7002 83.4004c-5.2002 6.59961 -4.7002 15.5996 1.09961 21.3994c5.7998 5.90039 14.7998 6.2998 21.2998 1.10059l83.3008 -67l35 140.199
c6.19922 24.4004 41.0996 24.4004 47.1992 0l35 -140l83.4004 66.7002c6.5 5.2002 15.4004 4.7002 21.2998 -1.09961c5.7998 -5.7998 6.2998 -14.7998 1.10059 -21.2998l-66.9004 -83.3008zM296 152l160 40l-160 40l-40 160l-40 -160l-160 -40l160 -40l40 -160z" />
    <glyph glyph-name="tenge" unicode="&#xf7d7;" horiz-adv-x="384" 
d="M376 320c4.40039 0 8 -3.59961 8 -8v-16c0 -4.40039 -3.59961 -8 -8 -8h-168v-312c0 -4.40039 -3.59961 -8 -8 -8h-16c-4.40039 0 -8 3.59961 -8 8v312h-168c-4.40039 0 -8 3.59961 -8 8v16c0 4.40039 3.59961 8 8 8h368zM376 416c4.40039 0 8 -3.59961 8 -8v-16
c0 -4.40039 -3.59961 -8 -8 -8h-368c-4.40039 0 -8 3.59961 -8 8v16c0 4.40039 3.59961 8 8 8h368z" />
    <glyph glyph-name="toilet" unicode="&#xf7d8;" horiz-adv-x="384" 
d="M376 416h-24v-172.7c20.2002 -10.0996 32 -22.2002 32 -35.2998c0 -67.2002 -34.5996 -126.2 -86.7998 -160.5l21.3994 -70.2002c6.30078 -20.5 -9.09961 -41.2998 -30.5996 -41.2998h-192c-21.5 0 -36.9004 20.7998 -30.5996 41.2998l21.3994 70.2002
c-52.2002 34.2998 -86.7998 93.2998 -86.7998 160.5c0 13.0996 11.7998 25.2002 32 35.2998v172.7h-24c-4.40039 0 -8 3.59961 -8 8v16c0 4.40039 3.59961 8 8 8h368c4.40039 0 8 -3.59961 8 -8v-16c0 -4.40039 -3.59961 -8 -8 -8zM64 416v-160.4
c34 10.2002 78.7998 16.4004 128 16.4004s94 -6.2002 128 -16.4004v160.4h-256zM192 240c-83.9004 0 -152 -14.2998 -152 -32s68.0996 -32 152 -32s152 14.2998 152 32s-68.0996 32 -152 32zM96 -32h192l-19.5 63.9004c-23.5 -10.2002 -49.2998 -15.9004 -76.5 -15.9004
s-53 5.7002 -76.5 15.9004zM192 48c75.2002 0 138.1 52.2998 155.1 122.4c-34.8994 -16 -91.2998 -26.4004 -155.1 -26.4004s-120.2 10.4004 -155.1 26.4004c17 -70.1006 79.8994 -122.4 155.1 -122.4zM152 384c4.40039 0 8 -3.59961 8 -8v-16c0 -4.40039 -3.59961 -8 -8 -8
h-48c-4.40039 0 -8 3.59961 -8 8v16c0 4.40039 3.59961 8 8 8h48z" />
    <glyph glyph-name="tram" unicode="&#xf7da;" 
d="M511.6 371.6c2 -8.59961 -3.39941 -17.1992 -12 -19.1992l-227.6 -53.1006v-75.2998h176c17.7002 0 32 -14.2998 32 -32v-224c0 -17.7002 -14.2998 -32 -32 -32h-384c-17.7002 0 -32 14.2998 -32 32v224c0 17.7002 14.2998 32 32 32h176v67.7998l-220.4 -51.3994
c-1.19922 -0.300781 -2.39941 -0.400391 -3.59961 -0.400391c-7.2998 0 -13.7998 5 -15.5996 12.2998c-2 8.60059 3.39941 17.2002 12 19.2002l480 112c8.69922 2 17.1992 -3.2998 19.1992 -11.9004zM64 192v-96h96v96h-96zM352 192v-96h96v96h-96zM448 64h-384v-96h384v96z
M320 192h-128v-96h128v96zM176 320c-26.5 0 -48 21.5 -48 48s21.5 48 48 48s48 -21.5 48 -48s-21.5 -48 -48 -48zM176 384c-8.7998 0 -16 -7.2002 -16 -16s7.2002 -16 16 -16s16 7.2002 16 16s-7.2002 16 -16 16zM304 352c-26.5 0 -48 21.5 -48 48s21.5 48 48 48
s48 -21.5 48 -48s-21.5 -48 -48 -48zM304 416c-8.7998 0 -16 -7.2002 -16 -16s7.2002 -16 16 -16s16 7.2002 16 16s-7.2002 16 -16 16z" />
    <glyph glyph-name="tree-christmas" unicode="&#xf7db;" 
d="M304 96c26.5 0 48 -21.5 48 -48s-21.5 -48 -48 -48s-48 21.5 -48 48s21.5 48 48 48zM304 32c8.7998 0 16 7.2002 16 16s-7.2002 16 -16 16s-16 -7.2002 -16 -16s7.2002 -16 16 -16zM272 176c0 -26.5 -21.5 -48 -48 -48s-48 21.5 -48 48s21.5 48 48 48s48 -21.5 48 -48z
M224 160c8.7998 0 16 7.2002 16 16s-7.2002 16 -16 16s-16 -7.2002 -16 -16s7.2002 -16 16 -16zM505.3 -12.4004c7.5 -9.59961 8.7002 -22.7998 3.40039 -33.6992c-5.2998 -10.9004 -16.5 -17.9004 -28.7002 -17.9004h-448c-12.2002 0 -23.4004 6.90039 -28.7998 17.9004
c-5.40039 11 -4 24.0996 3.5 33.6992l84.7002 108.7c-10.5 1.60059 -19.7002 8.2998 -24.3008 18.1006c-5.2998 11.2998 -3.5 24.5996 4.40039 34.0996l134.1 161l-27.8994 13.9004c-10.9004 5.39941 -17.7002 16.5 -17.7002 28.5996s6.7998 23.2002 17.7002 28.5996
l33.0996 16.6006l16.6006 33.0996c5.39941 10.9004 16.5 17.7002 28.5996 17.7002s23.2002 -6.7998 28.7998 -17.7002l16.6006 -33.0996l33.0996 -16.6006c10.9004 -5.39941 17.7002 -16.5 17.7002 -28.5996s-6.90039 -23.2002 -17.7002 -28.5996l-27.9004 -13.9004
l134.101 -161c8 -9.59961 9.7002 -22.9004 4.39941 -34.0996c-4.59961 -9.80078 -13.7998 -16.5 -24.2998 -18.1006zM192 352l42.7002 -21.2998l21.2998 -42.7002l21.2998 42.7002l42.7002 21.2998l-42.7002 21.2998l-21.2998 42.7002l-21.2998 -42.7002zM32 -32h448
l-124.4 160h60.4004l-127.8 153.2l-3.7002 -7.5c-5.40039 -10.9004 -16.5 -17.7002 -28.5996 -17.7002c-12.1006 0 -23.2002 6.90039 -28.6006 17.7002l-3.7002 7.5l-127.6 -153.2h60.4004z" />
    <glyph glyph-name="tree-decorated" unicode="&#xf7dc;" 
d="M505.3 -12.4004c7.5 -9.59961 8.7998 -22.6992 3.40039 -33.6992c-5.2998 -10.9004 -16.5 -17.9004 -28.7002 -17.9004h-448c-12.2002 0 -23.4004 7 -28.7998 17.9004c-5.40039 11 -4 24.0996 3.5 33.6992l59.3994 76.4004h-2.09961
c-12.0996 0 -23.2002 6.7998 -28.5996 17.7002c-5.40039 10.7998 -4.30078 23.7998 3 33.5l82.1992 109.6c-9.2998 2.2002 -17.2998 8.5 -21.5 17.2998c-5.2998 11.1006 -3.7998 24.3008 3.90039 33.9004l128 160c6.09961 7.59961 15.2998 12 25 12s18.9004 -4.40039 25 -12
l128 -159.9c7.7002 -9.69922 9.2002 -22.7998 3.90039 -33.8994c-4.30078 -8.7998 -12.2002 -15.1006 -21.5 -17.2998l82.1992 -109.7c7.30078 -9.7002 8.40039 -22.7002 3 -33.5c-5.39941 -10.9004 -16.5 -17.7002 -28.5996 -17.7002h-2.09961zM32 -32h448l-99.5996 128
h67.5996l-120 160h56l-128 160l-128 -160h56l-120 -160h67.5996zM304 96c26.5 0 48 -21.5 48 -48s-21.5 -48 -48 -48s-48 21.5 -48 48s21.5 48 48 48zM304 32c8.7998 0 16 7.2002 16 16s-7.2002 16 -16 16s-16 -7.2002 -16 -16s7.2002 -16 16 -16zM192 192
c26.5 0 48 -21.5 48 -48s-21.5 -48 -48 -48s-48 21.5 -48 48s21.5 48 48 48zM192 128c8.7998 0 16 7.2002 16 16s-7.2002 16 -16 16s-16 -7.2002 -16 -16s7.2002 -16 16 -16zM272 224c-26.5 0 -48 21.5 -48 48s21.5 48 48 48s48 -21.5 48 -48s-21.5 -48 -48 -48zM272 288
c-8.7998 0 -16 -7.2002 -16 -16s7.2002 -16 16 -16s16 7.2002 16 16s-7.2002 16 -16 16z" />
    <glyph glyph-name="truck-plow" unicode="&#xf7de;" horiz-adv-x="640" 
d="M572.4 56.5996l65.0996 -63.6992c3.09961 -3.10059 3.09961 -8.2002 0 -11.3008l-11.2998 -11.2998c-3.10059 -3.09961 -8.2002 -3.09961 -11.2998 0l-65.2002 63.6006c-15 15 -23.4004 35.3994 -23.4004 56.5996v53.5h-46.2998v-80c0 -53 -43 -96 -96 -96s-96 43 -96 96
h-64c0 -53 -43 -96 -96 -96s-96 43 -96 96c0 0.900391 0.299805 1.7998 0.299805 2.7998c-18.7998 6.60059 -32.2998 24.2002 -32.2998 45.2002v96c0 26.5 21.5 48 48 48h80v136c0 13.2002 10.7998 24 24 24h126.9c11.1992 0 21.7998 -6 27.5 -15.5996l86.6992 -144.4
h38.9004c26.5 0 48 -21.5 48 -48v-32h46.2998v53.5996c0 21.2002 8.40039 41.6006 23.4004 56.6006l65.2998 63.5996c3.09961 3.10059 8.2002 3.10059 11.2998 0l11.2998 -11.2998c3.10059 -3.09961 3.10059 -8.2002 0 -11.2998l-65.1992 -63.6006
c-9 -9 -14.1006 -21.2998 -14.1006 -34v-139c0 -12.7998 5.10059 -25 14.1006 -34zM160 384v-128h195.7l-76.7998 128h-118.9zM128 0c35.2998 0 64 28.7002 64 64s-28.7002 64 -64 64s-64 -28.7002 -64 -64s28.7002 -64 64 -64zM293.9 96
c13.1992 37.2002 48.3994 64 90.0996 64c24.7002 0 47 -9.59961 64 -24.9004v72.9004c0 8.7998 -7.2002 16 -16 16h-384c-8.7998 0 -16 -7.2002 -16 -16v-96c0 -5.40039 2.7998 -9.90039 6.90039 -12.7998c14 35.5996 48.5 60.7998 89.0996 60.7998
c41.7002 0 76.9004 -26.7998 90.0996 -64h75.8008zM384 0c35.2998 0 64 28.7002 64 64s-28.7002 64 -64 64s-64 -28.7002 -64 -64s28.7002 -64 64 -64z" />
    </font>
</defs>
</svg>
